  0
SECTION
  2
HEADER
  9
$ACADVER
  1
AC1015
  9
$ACADMAINTVER
 70
    20
  9
$DWGCODEPAGE
  3
ANSI_932
  9
$INSBASE
 10
2934.218706702941
 20
668.6345166575462
 30
0.0
  9
$EXTMIN
 10
-0.1276176917235716
 20
-0.0902753331133681
 30
-0.0000000000000097
  9
$EXTMAX
 10
2789.638892381871
 20
1973.359468235576
 30
0.0000000000000056
  9
$LIMMIN
 10
0.0
 20
0.0
  9
$LIMMAX
 10
297.0
 20
209.0
  9
$ORTHOMODE
 70
     1
  9
$REGENMODE
 70
     1
  9
$FILLMODE
 70
     1
  9
$QTEXTMODE
 70
     0
  9
$MIRRTEXT
 70
     1
  9
$LTSCALE
 40
1.0
  9
$ATTMODE
 70
     1
  9
$TEXTSIZE
 40
2.5
  9
$TRACEWID
 40
1.0
  9
$TEXTSTYLE
  7
Standard
  9
$CLAYER
  8
エンボス
  9
$CELTYPE
  6
ByLayer
  9
$CECOLOR
 62
   256
  9
$CELTSCALE
 40
3.0
  9
$DISPSILH
 70
     0
  9
$DIMSCALE
 40
10.0
  9
$DIMASZ
 40
1.5
  9
$DIMEXO
 40
2.0
  9
$DIMDLI
 40
3.75
  9
$DIMRND
 40
0.0
  9
$DIMDLE
 40
0.0
  9
$DIMEXE
 40
1.5
  9
$DIMTP
 40
0.0
  9
$DIMTM
 40
0.0
  9
$DIMTXT
 40
3.0
  9
$DIMCEN
 40
2.5
  9
$DIMTSZ
 40
0.0
  9
$DIMTOL
 70
     0
  9
$DIMLIM
 70
     0
  9
$DIMTIH
 70
     0
  9
$DIMTOH
 70
     0
  9
$DIMSE1
 70
     0
  9
$DIMSE2
 70
     0
  9
$DIMTAD
 70
     1
  9
$DIMZIN
 70
     8
  9
$DIMBLK
  1
Open30
  9
$DIMASO
 70
     1
  9
$DIMSHO
 70
     1
  9
$DIMPOST
  1

  9
$DIMAPOST
  1

  9
$DIMALT
 70
     0
  9
$DIMALTD
 70
     3
  9
$DIMALTF
 40
0.03937007874016
  9
$DIMLFAC
 40
1.0
  9
$DIMTOFL
 70
     1
  9
$DIMTVP
 40
0.0
  9
$DIMTIX
 70
     0
  9
$DIMSOXD
 70
     0
  9
$DIMSAH
 70
     0
  9
$DIMBLK1
  1

  9
$DIMBLK2
  1

  9
$DIMSTYLE
  2
ISO-25
  9
$DIMCLRD
 70
     0
  9
$DIMCLRE
 70
     0
  9
$DIMCLRT
 70
     0
  9
$DIMTFAC
 40
1.0
  9
$DIMGAP
 40
0.5
  9
$DIMJUST
 70
     0
  9
$DIMSD1
 70
     0
  9
$DIMSD2
 70
     0
  9
$DIMTOLJ
 70
     0
  9
$DIMTZIN
 70
     8
  9
$DIMALTZ
 70
     0
  9
$DIMALTTZ
 70
     0
  9
$DIMUPT
 70
     0
  9
$DIMDEC
 70
     2
  9
$DIMTDEC
 70
     2
  9
$DIMALTU
 70
     2
  9
$DIMALTTD
 70
     3
  9
$DIMTXSTY
  7
Standard
  9
$DIMAUNIT
 70
     0
  9
$DIMADEC
 70
     0
  9
$DIMALTRND
 40
0.0
  9
$DIMAZIN
 70
     0
  9
$DIMDSEP
 70
    46
  9
$DIMATFIT
 70
     0
  9
$DIMFRAC
 70
     0
  9
$DIMLDRBLK
  1
Open30
  9
$DIMLUNIT
 70
     2
  9
$DIMLWD
 70
    -2
  9
$DIMLWE
 70
    -2
  9
$DIMTMOVE
 70
     0
  9
$LUNITS
 70
     2
  9
$LUPREC
 70
     4
  9
$SKETCHINC
 40
1.0
  9
$FILLETRAD
 40
3.2
  9
$AUNITS
 70
     0
  9
$AUPREC
 70
     0
  9
$MENU
  1
.
  9
$ELEVATION
 40
0.0
  9
$PELEVATION
 40
0.0
  9
$THICKNESS
 40
0.0
  9
$LIMCHECK
 70
     0
  9
$CHAMFERA
 40
10.0
  9
$CHAMFERB
 40
10.0
  9
$CHAMFERC
 40
20.0
  9
$CHAMFERD
 40
0.0
  9
$SKPOLY
 70
     0
  9
$TDCREATE
 40
2453510.558637211
  9
$TDUCREATE
 40
2453510.183637211
  9
$TDUPDATE
 40
2457528.443372372
  9
$TDUUPDATE
 40
2457528.068372373
  9
$TDINDWG
 40
0.2809826042
  9
$TDUSRTIMER
 40
0.2809825810
  9
$USRTIMER
 70
     1
  9
$ANGBASE
 50
0.0
  9
$ANGDIR
 70
     0
  9
$PDMODE
 70
     0
  9
$PDSIZE
 40
0.0
  9
$PLINEWID
 40
0.0
  9
$SPLFRAME
 70
     0
  9
$SPLINETYPE
 70
     6
  9
$SPLINESEGS
 70
     8
  9
$HANDSEED
  5
CE2B
  9
$SURFTAB1
 70
     6
  9
$SURFTAB2
 70
     6
  9
$SURFTYPE
 70
     6
  9
$SURFU
 70
     6
  9
$SURFV
 70
     6
  9
$UCSBASE
  2

  9
$UCSNAME
  2

  9
$UCSORG
 10
0.0
 20
0.0
 30
0.0
  9
$UCSXDIR
 10
1.0
 20
0.0
 30
0.0
  9
$UCSYDIR
 10
0.0
 20
1.0
 30
0.0
  9
$UCSORTHOREF
  2

  9
$UCSORTHOVIEW
 70
     0
  9
$UCSORGTOP
 10
0.0
 20
0.0
 30
0.0
  9
$UCSORGBOTTOM
 10
0.0
 20
0.0
 30
0.0
  9
$UCSORGLEFT
 10
0.0
 20
0.0
 30
0.0
  9
$UCSORGRIGHT
 10
0.0
 20
0.0
 30
0.0
  9
$UCSORGFRONT
 10
0.0
 20
0.0
 30
0.0
  9
$UCSORGBACK
 10
0.0
 20
0.0
 30
0.0
  9
$PUCSBASE
  2

  9
$PUCSNAME
  2

  9
$PUCSORG
 10
0.0
 20
0.0
 30
0.0
  9
$PUCSXDIR
 10
1.0
 20
0.0
 30
0.0
  9
$PUCSYDIR
 10
0.0
 20
1.0
 30
0.0
  9
$PUCSORTHOREF
  2

  9
$PUCSORTHOVIEW
 70
     0
  9
$PUCSORGTOP
 10
0.0
 20
0.0
 30
0.0
  9
$PUCSORGBOTTOM
 10
0.0
 20
0.0
 30
0.0
  9
$PUCSORGLEFT
 10
0.0
 20
0.0
 30
0.0
  9
$PUCSORGRIGHT
 10
0.0
 20
0.0
 30
0.0
  9
$PUCSORGFRONT
 10
0.0
 20
0.0
 30
0.0
  9
$PUCSORGBACK
 10
0.0
 20
0.0
 30
0.0
  9
$USERI1
 70
     0
  9
$USERI2
 70
     0
  9
$USERI3
 70
     0
  9
$USERI4
 70
     0
  9
$USERI5
 70
     0
  9
$USERR1
 40
0.0
  9
$USERR2
 40
0.0
  9
$USERR3
 40
0.0
  9
$USERR4
 40
0.0
  9
$USERR5
 40
0.0
  9
$WORLDVIEW
 70
     1
  9
$SHADEDGE
 70
     3
  9
$SHADEDIF
 70
    70
  9
$TILEMODE
 70
     1
  9
$MAXACTVP
 70
    48
  9
$PINSBASE
 10
0.0
 20
0.0
 30
0.0
  9
$PLIMCHECK
 70
     0
  9
$PEXTMIN
 10
0.0
 20
0.0
 30
0.0
  9
$PEXTMAX
 10
0.0
 20
0.0
 30
0.0
  9
$PLIMMIN
 10
0.0
 20
0.0
  9
$PLIMMAX
 10
12.0
 20
9.0
  9
$UNITMODE
 70
     0
  9
$VISRETAIN
 70
     1
  9
$PLINEGEN
 70
     0
  9
$PSLTSCALE
 70
     1
  9
$TREEDEPTH
 70
  3020
  9
$CMLSTYLE
  2
Standard
  9
$CMLJUST
 70
     0
  9
$CMLSCALE
 40
20.0
  9
$PROXYGRAPHICS
 70
     1
  9
$MEASUREMENT
 70
     1
  9
$CELWEIGHT
370
    -1
  9
$ENDCAPS
280
     0
  9
$JOINSTYLE
280
     0
  9
$LWDISPLAY
290
     0
  9
$INSUNITS
 70
     4
  9
$HYPERLINKBASE
  1

  9
$STYLESHEET
  1
MONOCHROME.CTB
  9
$XEDIT
290
     1
  9
$CEPSNTYPE
380
     0
  9
$PSTYLEMODE
290
     1
  9
$FINGERPRINTGUID
  2

  9
$VERSIONGUID
  2
{E00D8129-1F23-4A52-B529-CF9417CC50D9}
  9
$EXTNAMES
290
     1
  9
$PSVPSCALE
 40
0.0
  9
$OLESTARTUP
290
     0
  0
ENDSEC
  0
SECTION
  2
CLASSES
  0
CLASS
  1
ACDBDICTIONARYWDFLT
  2
AcDbDictionaryWithDefault
  3
ObjectDBX Classes
 90
        0
280
     0
281
     0
  0
CLASS
  1
ACDBPLACEHOLDER
  2
AcDbPlaceHolder
  3
ObjectDBX Classes
 90
        0
280
     0
281
     0
  0
CLASS
  1
LAYOUT
  2
AcDbLayout
  3
ObjectDBX Classes
 90
        0
280
     0
281
     0
  0
CLASS
  1
DICTIONARYVAR
  2
AcDbDictionaryVar
  3
ObjectDBX Classes
 90
        0
280
     0
281
     0
  0
CLASS
  1
MATERIAL
  2
AcDbMaterial
  3
ObjectDBX Classes
 90
     1153
280
     0
281
     0
  0
CLASS
  1
VISUALSTYLE
  2
AcDbVisualStyle
  3
ObjectDBX Classes
 90
     4095
280
     0
281
     0
  0
CLASS
  1
TABLESTYLE
  2
AcDbTableStyle
  3
ObjectDBX Classes
 90
     4095
280
     0
281
     0
  0
CLASS
  1
SCALE
  2
AcDbScale
  3
ObjectDBX Classes
 90
     1153
280
     0
281
     0
  0
CLASS
  1
MLEADERSTYLE
  2
AcDbMLeaderStyle
  3
ACDB_MLEADERSTYLE_CLASS
 90
     4095
280
     0
281
     0
  0
CLASS
  1
ACDBSECTIONVIEWSTYLE
  2
AcDbSectionViewStyle
  3
ObjectDBX Classes
 90
     1025
280
     0
281
     0
  0
CLASS
  1
ACDBDETAILVIEWSTYLE
  2
AcDbDetailViewStyle
  3
ObjectDBX Classes
 90
     1025
280
     0
281
     0
  0
CLASS
  1
CELLSTYLEMAP
  2
AcDbCellStyleMap
  3
ObjectDBX Classes
 90
     1152
280
     0
281
     0
  0
CLASS
  1
SORTENTSTABLE
  2
AcDbSortentsTable
  3
ObjectDBX Classes
 90
        0
280
     0
281
     0
  0
CLASS
  1
ACARRAYJIGENTITY
  2
AcArrayJigEntity
  3
ACAD_ARRAY
 90
      129
280
     0
281
     1
  0
CLASS
  1
ACDBASSOCNETWORK
  2
AcDbAssocNetwork
  3
ObjectDBX Classes
 90
     1025
280
     0
281
     0
  0
CLASS
  1
ACDBASSOCACTION
  2
AcDbAssocAction
  3
ObjectDBX Classes
 90
     1025
280
     0
281
     0
  0
CLASS
  1
ACDBASSOCARRAYACTIONBODY
  2
AcDbAssocArrayActionBody
  3
ObjectDBX Classes
 90
     1025
280
     0
281
     0
  0
CLASS
  1
ACDBASSOCVERTEXACTIONPARAM
  2
AcDbAssocVertexActionParam
  3
ObjectDBX Classes
 90
     1025
280
     0
281
     0
  0
CLASS
  1
ACDBASSOCDEPENDENCY
  2
AcDbAssocDependency
  3
ObjectDBX Classes
 90
     1025
280
     0
281
     0
  0
CLASS
  1
ACDBASSOCARRAYRECTANGULARPARAMETERS
  2
AcDbAssocArrayRectangularParameters
  3
ObjectDBX Classes
 90
    33793
280
     0
281
     0
  0
ENDSEC
  0
SECTION
  2
TABLES
  0
TABLE
  2
VPORT
  5
52F
102
{ACAD_XDICTIONARY
360
BC2C
102
}
330
0
100
AcDbSymbolTable
 70
     1
  0
VPORT
  5
5B01
330
52F
100
AcDbSymbolTableRecord
100
AcDbViewportTableRecord
  2
*Active
 70
     0
 10
0.0
 20
0.0
 11
1.0
 21
1.0
 12
1394.755637345073
 22
986.6345964512312
 13
0.0
 23
0.0
 14
10.0
 24
10.0
 15
10.0
 25
10.0
 16
0.0
 26
0.0
 36
1.0
 17
0.0
 27
0.0
 37
0.0
 40
1990.511268729225
 41
1.709956709956709
 42
50.0
 43
0.0
 44
0.0
 50
0.0
 51
0.0
 71
     0
 72
   100
 73
     1
 74
     3
 75
     0
 76
     0
 77
     0
 78
     0
281
     0
 65
     1
110
0.0
120
0.0
130
0.0
111
1.0
121
0.0
131
0.0
112
0.0
122
1.0
132
0.0
 79
     0
146
0.0
1001
ACAD_NAV_VCDISPLAY
1070
     3
  0
ENDTAB
  0
TABLE
  2
LTYPE
  5
52A
330
0
100
AcDbSymbolTable
 70
     3
  0
LTYPE
  5
52B
330
52A
100
AcDbSymbolTableRecord
100
AcDbLinetypeTableRecord
  2
ByBlock
 70
     0
  3

 72
    65
 73
     0
 40
0.0
  0
LTYPE
  5
52C
330
52A
100
AcDbSymbolTableRecord
100
AcDbLinetypeTableRecord
  2
ByLayer
 70
     0
  3

 72
    65
 73
     0
 40
0.0
  0
LTYPE
  5
8
330
52A
100
AcDbSymbolTableRecord
100
AcDbLinetypeTableRecord
  2
Continuous
 70
     0
  3
Solid line
 72
    65
 73
     0
 40
0.0
  0
LTYPE
  5
7B
330
52A
100
AcDbSymbolTableRecord
100
AcDbLinetypeTableRecord
  2
HIDDEN
 70
     0
  3
Hidden __ __ __ __ __ __ __ __ __ __ __ __ __ _
 72
    65
 73
     2
 40
9.524999999999996
 49
6.349999999999998
 74
     0
 49
-3.174999999999998
 74
     0
  0
LTYPE
  5
185
330
52A
100
AcDbSymbolTableRecord
100
AcDbLinetypeTableRecord
  2
CENTER
 70
     0
  3
------ - ------ - ----
 72
    65
 73
     4
 40
10.0
 49
6.25
 74
     0
 49
-1.25
 74
     0
 49
1.25
 74
     0
 49
-1.25
 74
     0
  0
ENDTAB
  0
TABLE
  2
LAYER
  5
527
102
{ACAD_XDICTIONARY
360
5BC8
102
}
330
0
100
AcDbSymbolTable
 70
    11
  0
LAYER
  5
77
102
{ACAD_XDICTIONARY
360
5B65
102
}
330
527
100
AcDbSymbolTableRecord
100
AcDbLayerTableRecord
  2
0
 70
     0
 62
     7
  6
Continuous
370
    -3
390
5
  0
LAYER
  5
7A
102
{ACAD_XDICTIONARY
360
5B67
102
}
330
527
100
AcDbSymbolTableRecord
100
AcDbLayerTableRecord
  2
本体
 70
     0
 62
     7
  6
Continuous
370
    13
390
5
  0
LAYER
  5
4
102
{ACAD_XDICTIONARY
360
5B69
102
}
330
527
100
AcDbSymbolTableRecord
100
AcDbLayerTableRecord
  2
寸法線
 70
     0
 62
     2
  6
Continuous
370
     9
390
5
  0
LAYER
  5
2E8
102
{ACAD_XDICTIONARY
360
5B6D
102
}
330
527
100
AcDbSymbolTableRecord
100
AcDbLayerTableRecord
  2
エンボス
 70
     0
 62
     4
  6
Continuous
370
     5
390
5
  0
LAYER
  5
11
102
{ACAD_XDICTIONARY
360
5B6F
102
}
330
527
100
AcDbSymbolTableRecord
100
AcDbLayerTableRecord
  2
外枠
 70
     0
 62
     7
  6
Continuous
370
    -3
390
5
  0
LAYER
  5
F8
330
527
100
AcDbSymbolTableRecord
100
AcDbLayerTableRecord
  2
Defpoints
 70
     0
 62
     7
  6
Continuous
290
     0
370
    -3
390
5
  0
LAYER
  5
427F
102
{ACAD_XDICTIONARY
360
5B73
102
}
330
527
100
AcDbSymbolTableRecord
100
AcDbLayerTableRecord
  2
嵩上断面
 70
     0
 62
   112
  6
Continuous
370
    13
390
5
  0
LAYER
  5
4280
102
{ACAD_XDICTIONARY
360
5B75
102
}
330
527
100
AcDbSymbolTableRecord
100
AcDbLayerTableRecord
  2
嵩上平面
 70
     0
 62
   112
  6
Continuous
370
    13
390
5
  0
LAYER
  5
4281
102
{ACAD_XDICTIONARY
360
5B77
102
}
330
527
100
AcDbSymbolTableRecord
100
AcDbLayerTableRecord
  2
ゴム
 70
     0
 62
   -51
  6
Continuous
370
    13
390
5
  0
ENDTAB
  0
TABLE
  2
STYLE
  5
528
330
0
100
AcDbSymbolTable
 70
     2
  0
STYLE
  5
9
330
528
100
AcDbSymbolTableRecord
100
AcDbTextStyleTableRecord
  2
Standard
 70
     0
 40
0.0
 41
1.0
 50
0.0
 71
     0
 42
2.5
  3

  4

1001
ACAD
1000
MS Gothic
1071
    32817
  0
ENDTAB
  0
TABLE
  2
VIEW
  5
52D
330
0
100
AcDbSymbolTable
 70
     0
  0
ENDTAB
  0
TABLE
  2
UCS
  5
52E
330
0
100
AcDbSymbolTable
 70
     0
  0
ENDTAB
  0
TABLE
  2
APPID
  5
531
330
0
100
AcDbSymbolTable
 70
     6
  0
APPID
  5
A
330
531
100
AcDbSymbolTableRecord
100
AcDbRegAppTableRecord
  2
ACAD
 70
     0
  0
APPID
  5
5B56
330
531
100
AcDbSymbolTableRecord
100
AcDbRegAppTableRecord
  2
ACAD_NAV_VCDISPLAY
 70
     0
  0
APPID
  5
5BD2
330
531
100
AcDbSymbolTableRecord
100
AcDbRegAppTableRecord
  2
ACAD_EXEMPT_FROM_CAD_STANDARDS
 70
     0
  0
APPID
  5
5BF5
330
531
100
AcDbSymbolTableRecord
100
AcDbRegAppTableRecord
  2
GradientColor1ACI
 70
     0
  0
APPID
  5
5BF6
330
531
100
AcDbSymbolTableRecord
100
AcDbRegAppTableRecord
  2
GradientColor2ACI
 70
     0
  0
APPID
  5
BC62
330
531
100
AcDbSymbolTableRecord
100
AcDbRegAppTableRecord
  2
ACAD_MLEADERVER
 70
     0
  0
ENDTAB
  0
TABLE
  2
DIMSTYLE
  5
532
330
0
100
AcDbSymbolTable
 70
     2
100
AcDbDimStyleTable
 71
     1
340
EA
  0
DIMSTYLE
105
EA
102
{ACAD_REACTORS
330
A81B
330
AAEC
330
B3AF
330
B3B0
330
B3FD
330
B3FE
330
B470
330
B471
330
B478
330
B47E
102
}
330
532
100
AcDbSymbolTableRecord
100
AcDbDimStyleTableRecord
  2
ISO-25
 70
     0
 40
10.0
 41
1.5
 42
2.0
 43
3.75
 44
1.5
 73
     0
 74
     0
 77
     1
 78
     8
140
3.0
141
2.5
143
0.03937007874016
147
0.5
171
     3
172
     1
271
     2
272
     2
274
     3
283
     0
284
     8
289
     0
340
9
341
E3
342
E3
  0
DIMSTYLE
105
22AA
330
532
100
AcDbSymbolTableRecord
100
AcDbDimStyleTableRecord
  2
Standard
 70
     0
340
9
  0
ENDTAB
  0
TABLE
  2
BLOCK_RECORD
  5
1
330
0
100
AcDbSymbolTable
 70
    47
  0
BLOCK_RECORD
  5
2
102
{ACAD_XDICTIONARY
360
515
102
}
330
1
100
AcDbSymbolTableRecord
100
AcDbBlockTableRecord
  2
*Model_Space
340
519
  0
BLOCK_RECORD
  5
51B
102
{ACAD_XDICTIONARY
360
51C
102
}
330
1
100
AcDbSymbolTableRecord
100
AcDbBlockTableRecord
  2
*Paper_Space
340
520
  0
BLOCK_RECORD
  5
521
102
{ACAD_XDICTIONARY
360
522
102
}
330
1
100
AcDbSymbolTableRecord
100
AcDbBlockTableRecord
  2
*Paper_Space0
340
526
  0
BLOCK_RECORD
  5
E3
330
1
100
AcDbSymbolTableRecord
100
AcDbBlockTableRecord
  2
_Open30
340
0
102
{BLKREFS
331
BDB1
331
BDB2
331
BDBA
331
BDBB
331
BDC3
331
BDC4
331
BDCC
331
BDCD
331
BDD7
331
BDD8
331
BDE0
331
BDE1
331
BDE9
331
BDEA
331
BDF4
331
BDF5
331
BDFF
331
BE00
331
BE0A
331
BE0B
102
}
  0
BLOCK_RECORD
  5
38BA
330
1
100
AcDbSymbolTableRecord
100
AcDbBlockTableRecord
  2
HGIB
340
0
102
{BLKREFS
331
38D7
102
}
1001
ACAD
1000
DesignCenter Data
1002
{
1070
     1
1070
     4
1002
}
  0
BLOCK_RECORD
  5
38D6
330
1
100
AcDbSymbolTableRecord
100
AcDbBlockTableRecord
  2
HGIB詳細(ﾊｲﾃﾝ)
340
0
102
{BLKREFS
331
38DF
102
}
1001
ACAD
1000
DesignCenter Data
1002
{
1070
     1
1070
     4
1002
}
  0
BLOCK_RECORD
  5
415B
330
1
100
AcDbSymbolTableRecord
100
AcDbBlockTableRecord
  2
清水
340
0
102
{BLKREFS
331
4161
102
}
1001
ACAD
1000
DesignCenter Data
1002
{
1070
     1
1070
     4
1002
}
  0
BLOCK_RECORD
  5
41F0
330
1
100
AcDbSymbolTableRecord
100
AcDbBlockTableRecord
  2
ｱﾝｸﾞﾙ断面　L3ｘ40ｘ40
340
0
102
{BLKREFS
331
B476
331
B47B
102
}
1001
ACAD
1000
DesignCenter Data
1002
{
1070
     1
1070
     4
1002
}
  0
BLOCK_RECORD
  5
7AAF
330
1
100
AcDbSymbolTableRecord
100
AcDbBlockTableRecord
  2
TB6
340
0
102
{BLKREFS
331
B477
331
B479
331
B47A
331
B47C
331
B47D
102
}
1001
ACAD
1000
DesignCenter Data
1002
{
1070
     1
1070
     4
1002
}
  0
BLOCK_RECORD
  5
B47F
330
1
100
AcDbSymbolTableRecord
100
AcDbBlockTableRecord
  2
*D31
340
0
  0
BLOCK_RECORD
  5
B48B
330
1
100
AcDbSymbolTableRecord
100
AcDbBlockTableRecord
  2
*D32
340
0
  0
BLOCK_RECORD
  5
B499
330
1
100
AcDbSymbolTableRecord
100
AcDbBlockTableRecord
  2
*D33
340
0
  0
BLOCK_RECORD
  5
B4A7
330
1
100
AcDbSymbolTableRecord
100
AcDbBlockTableRecord
  2
*D34
340
0
  0
BLOCK_RECORD
  5
B4B5
330
1
100
AcDbSymbolTableRecord
100
AcDbBlockTableRecord
  2
*D35
340
0
  0
BLOCK_RECORD
  5
B4C3
330
1
100
AcDbSymbolTableRecord
100
AcDbBlockTableRecord
  2
*D36
340
0
  0
BLOCK_RECORD
  5
B4CF
330
1
100
AcDbSymbolTableRecord
100
AcDbBlockTableRecord
  2
*D37
340
0
  0
BLOCK_RECORD
  5
B4DB
330
1
100
AcDbSymbolTableRecord
100
AcDbBlockTableRecord
  2
*D38
340
0
  0
BLOCK_RECORD
  5
B4E7
330
1
100
AcDbSymbolTableRecord
100
AcDbBlockTableRecord
  2
*D39
340
0
  0
BLOCK_RECORD
  5
B4F5
330
1
100
AcDbSymbolTableRecord
100
AcDbBlockTableRecord
  2
*D40
340
0
  0
BLOCK_RECORD
  5
CCE2
102
{ACAD_REACTORS
330
CD42
102
}
330
1
100
AcDbSymbolTableRecord
100
AcDbBlockTableRecord
  2
*U41
340
0
102
{BLKREFS
331
CD46
331
CD47
331
CD48
331
CD49
331
CD4A
331
CD4B
331
CD4C
331
CD4D
331
CD4E
331
CD4F
331
CD50
331
CD51
331
CD52
331
CD53
331
CD54
331
CD55
102
}
  0
BLOCK_RECORD
  5
CCE5
102
{ACAD_XDICTIONARY
360
CE22
102
}
102
{ACAD_REACTORS
330
CD41
102
}
330
1
100
AcDbSymbolTableRecord
100
AcDbBlockTableRecord
  2
*U42
340
0
102
{BLKREFS
331
CCE8
102
}
  0
BLOCK_RECORD
  5
CD57
102
{ACAD_REACTORS
330
CD99
102
}
330
1
100
AcDbSymbolTableRecord
100
AcDbBlockTableRecord
  2
*U43
340
0
102
{BLKREFS
331
CD9D
331
CD9E
331
CD9F
331
CDA0
331
CDA1
331
CDA2
331
CDA3
331
CDA4
331
CDA5
331
CDA6
331
CDA7
331
CDA8
331
CDA9
331
CDAA
331
CDAB
331
CDAC
331
CDAD
331
CDAE
331
CDAF
331
CDB0
331
CDB1
331
CDB2
331
CDB3
331
CDB4
331
CDB5
331
CDB6
331
CDB7
331
CDB8
331
CDB9
331
CDBA
331
CDBB
331
CDBC
102
}
  0
BLOCK_RECORD
  5
CD5A
102
{ACAD_XDICTIONARY
360
CE25
102
}
102
{ACAD_REACTORS
330
CD98
102
}
330
1
100
AcDbSymbolTableRecord
100
AcDbBlockTableRecord
  2
*U44
340
0
102
{BLKREFS
331
CD5D
102
}
  0
BLOCK_RECORD
  5
CDBE
102
{ACAD_REACTORS
330
CDCC
102
}
330
1
100
AcDbSymbolTableRecord
100
AcDbBlockTableRecord
  2
*U45
340
0
102
{BLKREFS
331
CDD0
331
CDD1
331
CDD2
331
CDD3
331
CDD4
331
CDD5
331
CDD6
331
CDD7
331
CDD8
331
CDD9
331
CDDA
331
CDDB
331
CDDC
331
CDDD
331
CDDE
331
CDDF
331
CDE0
102
}
  0
BLOCK_RECORD
  5
CDC1
102
{ACAD_XDICTIONARY
360
CE28
102
}
102
{ACAD_REACTORS
330
CDCB
102
}
330
1
100
AcDbSymbolTableRecord
100
AcDbBlockTableRecord
  2
*U46
340
0
102
{BLKREFS
331
CDC4
102
}
  0
ENDTAB
  0
ENDSEC
  0
SECTION
  2
BLOCKS
  0
BLOCK
  5
517
330
2
100
AcDbEntity
  8
0
100
AcDbBlockBegin
  2
*Model_Space
 70
     0
 10
0.0
 20
0.0
 30
0.0
  3
*Model_Space
  1

  0
ENDBLK
  5
518
330
2
100
AcDbEntity
  8
0
100
AcDbBlockEnd
  0
BLOCK
  5
51E
330
51B
100
AcDbEntity
 67
     1
  8
0
100
AcDbBlockBegin
  2
*Paper_Space
 70
     0
 10
0.0
 20
0.0
 30
0.0
  3
*Paper_Space
  1

  0
ENDBLK
  5
51F
330
51B
100
AcDbEntity
 67
     1
  8
0
100
AcDbBlockEnd
  0
BLOCK
  5
524
330
521
100
AcDbEntity
 67
     1
  8
0
100
AcDbBlockBegin
  2
*Paper_Space0
 70
     0
 10
0.0
 20
0.0
 30
0.0
  3
*Paper_Space0
  1

  0
ENDBLK
  5
525
330
521
100
AcDbEntity
 67
     1
  8
0
100
AcDbBlockEnd
  0
BLOCK
  5
E7
330
E3
100
AcDbEntity
  8
0
100
AcDbBlockBegin
  2
_Open30
 70
     0
 10
0.0
 20
0.0
 30
0.0
  3
_Open30
  1

  0
LINE
  5
E4
330
E3
100
AcDbEntity
  8
0
  6
ByBlock
 62
     0
370
    -2
100
AcDbLine
 10
-1.0
 20
0.26794919
 30
0.0
 11
0.0
 21
0.0
 31
0.0
  0
LINE
  5
E5
330
E3
100
AcDbEntity
  8
0
  6
ByBlock
 62
     0
370
    -2
100
AcDbLine
 10
0.0
 20
0.0
 30
0.0
 11
-1.0
 21
-0.26794919
 31
0.0
  0
LINE
  5
E6
330
E3
100
AcDbEntity
  8
0
  6
ByBlock
 62
     0
370
    -2
100
AcDbLine
 10
0.0
 20
0.0
 30
0.0
 11
-1.0
 21
0.0
 31
0.0
  0
ENDBLK
  5
E8
330
E3
100
AcDbEntity
  8
0
100
AcDbBlockEnd
  0
BLOCK
  5
38D4
330
38BA
100
AcDbEntity
  8
0
 48
3.0
100
AcDbBlockBegin
  2
HGIB
 70
     0
 10
0.0
 20
0.0
 30
0.0
  3
HGIB
  1

  0
HATCH
  5
38BB
330
38BA
100
AcDbEntity
  8
エンボス
  6
Continuous
100
AcDbHatch
 10
0.0
 20
0.0
 30
0.0
210
0.0
220
0.0
230
1.0
  2
ANSI31
 70
     0
 71
     0
 91
        1
 92
        7
 72
     0
 73
     1
 93
        4
 10
2598.395508994833
 20
395.2830454732981
 10
2589.755508994832
 20
395.2830454732981
 10
2589.755508994832
 20
215.283045473298
 10
2598.395508994833
 20
215.283045473298
 97
        0
 75
     0
 76
     1
 52
0.0
 41
0.5
 77
     0
 78
     1
 53
45.0
 43
2474.380842051369
 44
106.2467414777475
 45
-1.122532015133643
 46
1.122532015133643
 79
     0
 47
0.563450176776409
 98
        1
 10
2592.755449710311
 20
376.0478413144848
  0
LINE
  5
38BC
330
38BA
100
AcDbEntity
  8
エンボス
  6
Continuous
100
AcDbLine
 10
2589.755508994832
 20
395.282673953298
 30
0.0
 11
2589.755508994832
 21
215.283045473298
 31
0.0
  0
LINE
  5
38BD
330
38BA
100
AcDbEntity
  8
エンボス
  6
Continuous
100
AcDbLine
 10
2598.395508994833
 20
395.282673953298
 30
0.0
 11
2598.395508994833
 21
215.283045473298
 31
0.0
  0
HATCH
  5
38BE
330
38BA
100
AcDbEntity
  8
エンボス
  6
Continuous
100
AcDbHatch
 10
0.0
 20
0.0
 30
0.0
210
0.0
220
0.0
230
1.0
  2
ANSI31
 70
     0
 71
     0
 91
        6
 92
        7
 72
     0
 73
     1
 93
        4
 10
2589.755508994832
 20
395.2830454732981
 10
2578.955508994833
 20
395.2830454732981
 10
2578.955508994833
 20
379.7350775893804
 10
2589.755508994832
 20
379.7350775893804
 97
        0
 92
        7
 72
     0
 73
     1
 93
        4
 10
2609.195508994833
 20
395.2830454732981
 10
2598.395508994833
 20
395.2830454732981
 10
2598.395508994833
 20
379.7350775893804
 10
2609.195508994833
 20
379.7350775893804
 97
        0
 92
        7
 72
     0
 73
     1
 93
        4
 10
2609.195508994833
 20
319.2550775893803
 10
2598.395508994833
 20
319.2550775893803
 10
2598.395508994833
 20
293.3350775893804
 10
2609.195508994833
 20
293.3350775893804
 97
        0
 92
        7
 72
     0
 73
     1
 93
        4
 10
2589.755508994832
 20
319.2550775893803
 10
2578.955508994833
 20
319.2550775893803
 10
2578.955508994833
 20
293.3350775893804
 10
2589.755508994832
 20
293.3350775893804
 97
        0
 92
        7
 72
     0
 73
     1
 93
        4
 10
2589.755508994832
 20
232.8550775893804
 10
2578.955508994833
 20
232.8550775893804
 10
2578.955508994833
 20
215.283045473298
 10
2589.755508994832
 20
215.283045473298
 97
        0
 92
        7
 72
     0
 73
     1
 93
        4
 10
2609.195508994833
 20
232.8550775893804
 10
2598.395508994833
 20
232.8550775893804
 10
2598.395508994833
 20
215.283045473298
 10
2609.195508994833
 20
215.283045473298
 97
        0
 75
     0
 76
     1
 52
0.0
 41
0.5
 77
     0
 78
     1
 53
45.0
 43
2474.380842051369
 44
106.2467414777475
 45
-1.122532015133643
 46
1.122532015133643
 79
     0
 47
0.3958305108731848
 98
        6
 10
2589.206404759057
 20
386.2324722500265
 10
2600.298079096567
 20
383.8574892380292
 10
2601.486472351019
 20
310.2330133371264
 10
2588.414142094094
 20
309.4413526141259
 10
2588.414142094094
 20
224.733623219233
 10
2603.070997680946
 20
222.754470568736
  0
LINE
  5
38BF
330
38BA
100
AcDbEntity
  8
エンボス
370
     0
100
AcDbLine
 10
2578.955508994833
 20
395.2830454732981
 30
0.0
 11
2578.955508994833
 21
215.283045473298
 31
0.0
  0
LINE
  5
38C0
330
38BA
100
AcDbEntity
  8
エンボス
370
     0
100
AcDbLine
 10
2609.195508994833
 20
395.2830454732981
 30
0.0
 11
2609.195508994833
 21
215.283045473298
 31
0.0
  0
LWPOLYLINE
  5
38C1
330
38BA
100
AcDbEntity
  8
エンボス
  6
Continuous
100
AcDbPolyline
 90
        4
 70
     1
 43
0.0
 10
2432.382912220417
 20
490.2897016400266
 10
2766.698625310989
 20
490.2897016400266
 10
2766.698625310989
 20
204.0465104579365
 10
2432.382912220417
 20
204.0465104579365
  0
LINE
  5
38C2
330
38BA
100
AcDbEntity
  8
エンボス
  6
Continuous
100
AcDbLine
 10
2578.955508994833
 20
232.8550775893804
 30
0.0
 11
2589.755508994832
 21
232.8550775893804
 31
0.0
  0
LINE
  5
38C3
330
38BA
100
AcDbEntity
  8
エンボス
  6
Continuous
100
AcDbLine
 10
2578.955508994833
 20
237.1750775893804
 30
0.0
 11
2589.755508994832
 21
237.1750775893804
 31
0.0
  0
LINE
  5
38C4
330
38BA
100
AcDbEntity
  8
エンボス
  6
Continuous
100
AcDbLine
 10
2578.955508994833
 20
289.0150775893803
 30
0.0
 11
2589.755508994832
 21
289.0150775893803
 31
0.0
  0
LINE
  5
38C5
330
38BA
100
AcDbEntity
  8
エンボス
  6
Continuous
100
AcDbLine
 10
2578.955508994833
 20
323.5750775893804
 30
0.0
 11
2589.755508994832
 21
323.5750775893804
 31
0.0
  0
LINE
  5
38C6
330
38BA
100
AcDbEntity
  8
エンボス
  6
Continuous
100
AcDbLine
 10
2578.955508994833
 20
319.2550775893803
 30
0.0
 11
2589.755508994832
 21
319.2550775893803
 31
0.0
  0
LINE
  5
38C7
330
38BA
100
AcDbEntity
  8
エンボス
  6
Continuous
100
AcDbLine
 10
2578.955508994833
 20
293.3350775893804
 30
0.0
 11
2589.755508994832
 21
293.3350775893804
 31
0.0
  0
LINE
  5
38C8
330
38BA
100
AcDbEntity
  8
エンボス
  6
Continuous
100
AcDbLine
 10
2598.395508994833
 20
232.8550775893804
 30
0.0
 11
2609.195508994833
 21
232.8550775893804
 31
0.0
  0
LINE
  5
38C9
330
38BA
100
AcDbEntity
  8
エンボス
  6
Continuous
100
AcDbLine
 10
2598.395508994833
 20
237.1750775893804
 30
0.0
 11
2609.195508994833
 21
237.1750775893804
 31
0.0
  0
LINE
  5
38CA
330
38BA
100
AcDbEntity
  8
エンボス
  6
Continuous
100
AcDbLine
 10
2598.395508994833
 20
289.0150775893803
 30
0.0
 11
2609.195508994833
 21
289.0150775893803
 31
0.0
  0
LINE
  5
38CB
330
38BA
100
AcDbEntity
  8
エンボス
  6
Continuous
100
AcDbLine
 10
2598.395508994833
 20
323.5750775893804
 30
0.0
 11
2609.195508994833
 21
323.5750775893804
 31
0.0
  0
LINE
  5
38CC
330
38BA
100
AcDbEntity
  8
エンボス
  6
Continuous
100
AcDbLine
 10
2598.395508994833
 20
293.3350775893804
 30
0.0
 11
2609.195508994833
 21
293.3350775893804
 31
0.0
  0
LINE
  5
38CD
330
38BA
100
AcDbEntity
  8
エンボス
  6
Continuous
100
AcDbLine
 10
2598.395508994833
 20
319.2550775893803
 30
0.0
 11
2609.195508994833
 21
319.2550775893803
 31
0.0
  0
TEXT
  5
38CE
330
38BA
100
AcDbEntity
  8
エンボス
  6
Continuous
100
AcDbText
 10
2472.55741028353
 20
444.5489719793978
 30
0.0
 40
30.0
  1
HGIB形状詳細
100
AcDbText
1001
ACAD
1000
MTEXTBEGIN
1070
    73
1070
     1
1070
    44
1040
1.0
1070
    74
1070
     0
1000
MTEXTEND
1000
MTEXTBEGIN
1070
    73
1070
     1
1070
    44
1040
1.0
1070
    74
1070
     0
1000
MTEXTEND
1000
MTEXTBEGIN
1070
    73
1070
     1
1070
    44
1040
1.0
1070
    74
1070
     0
1000
MTEXTEND
1000
MTEXTBEGIN
1070
    73
1070
     1
1070
    44
1040
1.0
1070
    74
1070
     0
1000
MTEXTEND
  0
MTEXT
  5
38CF
330
38BA
100
AcDbEntity
  8
エンボス
  6
Continuous
100
AcDbMText
 10
2502.941978130668
 20
430.3199610346713
 30
0.0
 40
15.0
 41
256.2474
 71
     1
 72
     5
  1
※塗りつぶし部分突起
 73
     1
 44
1.0
1001
ACAD
1000
MTEXTBEGIN
1070
    73
1070
     1
1070
    44
1040
1.0
1070
    74
1070
     0
1000
MTEXTEND
  0
LINE
  5
38D0
330
38BA
100
AcDbEntity
  8
エンボス
  6
Continuous
100
AcDbLine
 10
2578.955508994833
 20
379.7350775893804
 30
0.0
 11
2589.755508994832
 21
379.7350775893804
 31
0.0
  0
LINE
  5
38D1
330
38BA
100
AcDbEntity
  8
エンボス
  6
Continuous
100
AcDbLine
 10
2578.955508994833
 20
375.4150775893803
 30
0.0
 11
2589.755508994832
 21
375.4150775893805
 31
0.0
  0
LINE
  5
38D2
330
38BA
100
AcDbEntity
  8
エンボス
  6
Continuous
100
AcDbLine
 10
2598.395508994833
 20
379.7350775893804
 30
0.0
 11
2609.195508994833
 21
379.7350775893804
 31
0.0
  0
LINE
  5
38D3
330
38BA
100
AcDbEntity
  8
エンボス
  6
Continuous
100
AcDbLine
 10
2598.395508994833
 20
375.4150775893805
 30
0.0
 11
2609.195508994833
 21
375.4150775893803
 31
0.0
  0
ENDBLK
  5
38D5
330
38BA
100
AcDbEntity
  8
0
 48
3.0
100
AcDbBlockEnd
  0
BLOCK
  5
38D8
330
38D6
100
AcDbEntity
  8
0
 48
3.0
100
AcDbBlockBegin
  2
HGIB詳細(ﾊｲﾃﾝ)
 70
     0
 10
0.0
 20
0.0
 30
0.0
  3
HGIB詳細(ﾊｲﾃﾝ)
  1

  0
INSERT
  5
38D7
330
38D6
100
AcDbEntity
  8
寸法線
 48
3.0
100
AcDbBlockReference
  2
HGIB
 10
-2766.698625310989
 20
-204.0465104579365
 30
0.0
  0
ENDBLK
  5
38D9
330
38D6
100
AcDbEntity
  8
0
 48
3.0
100
AcDbBlockEnd
  0
BLOCK
  5
415F
330
415B
100
AcDbEntity
  8
0
 48
3.0
100
AcDbBlockBegin
  2
清水
 70
     0
 10
0.0
 20
0.0
 30
0.0
  3
清水
  1

  0
MTEXT
  5
415C
330
415B
100
AcDbEntity
  8
外枠
  6
Continuous
100
AcDbMText
 10
40.55333581259037
 20
-88.14888116777728
 30
0.0
 40
28.17460800000001
 41
43.8527
 71
     1
 72
     5
  1
{\fHG正楷書体-PRO|b0|i0|c128|p65;水}
 73
     1
 44
1.0
1001
ACAD
1000
MTEXTBEGIN
1070
    73
1070
     1
1070
    44
1040
1.0
1070
    74
1070
     0
1000
MTEXTEND
  0
MTEXT
  5
415D
330
415B
100
AcDbEntity
  8
外枠
  6
Continuous
100
AcDbMText
 10
40.55333581259037
 20
-45.6188562986499
 30
0.0
 40
28.17460800000001
 41
43.8527
 71
     1
 72
     5
  1
{\fHG正楷書体-PRO|b0|i0|c128|p65;清}
 73
     1
 44
1.0
1001
ACAD
1000
MTEXTBEGIN
1070
    73
1070
     1
1070
    44
1040
1.0
1070
    74
1070
     0
1000
MTEXTEND
  0
ELLIPSE
  5
415E
330
415B
100
AcDbEntity
  8
外枠
  6
Continuous
100
AcDbEllipse
 10
61.68068686355035
 20
-84.59863033186413
 30
0.0
 11
0.0
 21
-47.85944421494259
 31
0.0
210
0.0
220
0.0
230
1.0
 40
0.7999999999999857
 41
0.0
 42
6.283185307179585
  0
ENDBLK
  5
4160
330
415B
100
AcDbEntity
  8
0
 48
3.0
100
AcDbBlockEnd
  0
BLOCK
  5
41FB
330
41F0
100
AcDbEntity
  8
0
 48
3.0
100
AcDbBlockBegin
  2
ｱﾝｸﾞﾙ断面　L3ｘ40ｘ40
 70
     0
 10
0.0
 20
0.0
 30
0.0
  3
ｱﾝｸﾞﾙ断面　L3ｘ40ｘ40
  1

  0
ARC
  5
41F1
330
41F0
100
AcDbEntity
  8
嵩上断面
 48
3.0
100
AcDbCircle
 10
1.000000000000227
 20
38.00000000000023
 30
0.0
 40
2.0
100
AcDbArc
 50
0.0
 51
90.0
  0
LINE
  5
41F2
330
41F0
100
AcDbEntity
  8
嵩上断面
 48
3.0
100
AcDbLine
 10
0.0
 20
0.0
 30
0.0
 11
39.99999999999977
 21
0.0000000000002274
 31
0.0
  0
LINE
  5
41F3
330
41F0
100
AcDbEntity
  8
嵩上断面
 48
3.0
100
AcDbLine
 10
0.0
 20
40.0
 30
0.0
 11
0.0
 21
0.0
 31
0.0
  0
LINE
  5
41F4
330
41F0
100
AcDbEntity
  8
嵩上断面
 48
3.0
100
AcDbLine
 10
0.0
 20
40.0
 30
0.0
 11
1.000000000000227
 21
40.00000000000023
 31
0.0
  0
LINE
  5
41F5
330
41F0
100
AcDbEntity
  8
嵩上断面
 48
3.0
100
AcDbLine
 10
39.99999999999977
 20
0.0000000000002274
 30
0.0
 11
39.99999999999977
 21
1.0
 31
0.0
  0
LINE
  5
41F6
330
41F0
100
AcDbEntity
  8
嵩上断面
 48
3.0
100
AcDbLine
 10
2.100000000000135
 20
0.0000000000002274
 30
0.0
 11
34.29999999999996
 21
0.0000000000002274
 31
0.0
  0
LINE
  5
41F7
330
41F0
100
AcDbEntity
  8
嵩上断面
 48
3.0
100
AcDbLine
 10
7.500000000000227
 20
2.999999999999771
 30
0.0
 11
37.99999999999978
 21
3.0
 31
0.0
  0
ARC
  5
41F8
330
41F0
100
AcDbEntity
  8
嵩上断面
 48
3.0
100
AcDbCircle
 10
7.500000000000227
 20
7.499999999999772
 30
0.0
 40
4.5
100
AcDbArc
 50
180.0
 51
270.0
  0
LINE
  5
41F9
330
41F0
100
AcDbEntity
  8
嵩上断面
 48
3.0
100
AcDbLine
 10
3.000000000000226
 20
38.00000000000023
 30
0.0
 11
3.000000000000226
 21
7.499999999999772
 31
0.0
  0
ARC
  5
41FA
330
41F0
100
AcDbEntity
  8
嵩上断面
 48
3.0
100
AcDbCircle
 10
37.99999999999978
 20
1.0
 30
0.0
 40
2.0
100
AcDbArc
 50
0.0
 51
90.0
  0
ENDBLK
  5
41FC
330
41F0
100
AcDbEntity
  8
0
 48
3.0
100
AcDbBlockEnd
  0
BLOCK
  5
7AB0
330
7AAF
100
AcDbEntity
  8
0
100
AcDbBlockBegin
  2
TB6
 70
     0
 10
0.0
 20
0.0
 30
0.0
  3
TB6
  1

  0
MTEXT
  5
7AB1
330
7AAF
100
AcDbEntity
  8
寸法線
  6
Continuous
100
AcDbMText
 10
917.3216494432054
 20
235.349302881973
 30
0.0
 40
20.0
 41
17.2146
 71
     7
 72
     1
  1

 73
     1
 44
1.0
1001
ACAD
1000
MTEXTBEGIN
1070
    73
1070
     1
1070
    44
1040
1.0
1070
    74
1070
     0
1000
MTEXTEND
  0
LINE
  5
7AB2
330
7AAF
100
AcDbEntity
  8
本体
  6
CENTER
 62
     1
 48
0.3
100
AcDbLine
 10
9.0
 20
0.0
 30
0.0
 11
-3.0
 21
0.0
 31
0.0
  0
LINE
  5
7AB3
330
7AAF
100
AcDbEntity
  8
本体
  6
CENTER
 62
     1
 48
0.3
100
AcDbLine
 10
3.0
 20
6.0
 30
0.0
 11
3.0
 21
-6.0
 31
0.0
  0
CIRCLE
  5
7AB4
330
7AAF
100
AcDbEntity
  8
本体
  6
Continuous
 62
     0
100
AcDbCircle
 10
3.0
 20
0.0
 30
0.0
 40
3.0
  0
ENDBLK
  5
7AB5
330
7AAF
100
AcDbEntity
  8
0
100
AcDbBlockEnd
  0
BLOCK
  5
B480
330
B47F
100
AcDbEntity
  8
0
 48
3.0
100
AcDbBlockBegin
  2
*D31
 70
     1
 10
0.0
 20
0.0
 30
0.0
  3
*D31
  1

  0
LINE
  5
BDE6
330
B47F
100
AcDbEntity
  8
寸法線
  6
Continuous
 62
     0
370
    -2
100
AcDbLine
 10
399.9999999999992
 20
1431.265796905608
 30
0.0
 11
399.9999999999992
 21
1587.161198593099
 31
0.0
  0
LINE
  5
BDE7
330
B47F
100
AcDbEntity
  8
寸法線
  6
Continuous
 62
     0
370
    -2
100
AcDbLine
 10
1394.999999999999
 20
1431.265796905602
 30
0.0
 11
1394.999999999999
 21
1587.161198593099
 31
0.0
  0
LINE
  5
BDE8
330
B47F
100
AcDbEntity
  8
寸法線
  6
Continuous
 62
     0
370
    -2
100
AcDbLine
 10
414.999999999999
 20
1572.161198593099
 30
0.0
 11
1379.999999999999
 21
1572.161198593099
 31
0.0
  0
INSERT
  5
BDE9
330
B47F
100
AcDbEntity
  8
寸法線
  6
Continuous
 62
     0
370
    -2
100
AcDbBlockReference
  2
_Open30
 10
399.9999999999992
 20
1572.161198593099
 30
0.0
 41
15.0
 42
15.0
 43
15.0
 50
180.0
  0
INSERT
  5
BDEA
330
B47F
100
AcDbEntity
  8
寸法線
  6
Continuous
 62
     0
370
    -2
100
AcDbBlockReference
  2
_Open30
 10
1394.999999999999
 20
1572.161198593099
 30
0.0
 41
15.0
 42
15.0
 43
15.0
  0
MTEXT
  5
BDEB
330
B47F
100
AcDbEntity
  8
寸法線
  6
Continuous
 62
     0
100
AcDbMText
 10
897.499999999999
 20
1592.161198593099
 30
0.0
 40
30.0
 41
0.0
 71
     5
 72
     1
  1
995
 73
     1
 44
1.0
1001
ACAD
1000
MTEXTBEGIN
1070
    73
1070
     1
1070
    44
1040
1.0
1070
    74
1070
     0
1000
MTEXTEND
  0
POINT
  5
BDEC
330
B47F
100
AcDbEntity
  8
Defpoints
  6
Continuous
 62
     0
100
AcDbPoint
 10
399.9999999999992
 20
1411.265796905608
 30
0.0
  0
POINT
  5
BDED
330
B47F
100
AcDbEntity
  8
Defpoints
  6
Continuous
 62
     0
100
AcDbPoint
 10
1394.999999999999
 20
1411.265796905602
 30
0.0
  0
POINT
  5
BDEE
330
B47F
100
AcDbEntity
  8
Defpoints
  6
Continuous
 62
     0
100
AcDbPoint
 10
1394.999999999999
 20
1572.161198593099
 30
0.0
  0
ENDBLK
  5
B481
330
B47F
100
AcDbEntity
  8
0
 48
3.0
100
AcDbBlockEnd
  0
BLOCK
  5
B48C
330
B48B
100
AcDbEntity
  8
0
 48
3.0
100
AcDbBlockBegin
  2
*D32
 70
     1
 10
0.0
 20
0.0
 30
0.0
  3
*D32
  1

  0
LINE
  5
BDEF
330
B48B
100
AcDbEntity
  8
寸法線
  6
Continuous
 62
     0
370
    -2
100
AcDbLine
 10
1122.499999999999
 20
1431.265796905608
 30
0.0
 11
1122.499999999999
 21
1507.165796905608
 31
0.0
  0
LINE
  5
BDF0
330
B48B
100
AcDbEntity
  8
寸法線
  6
Continuous
 62
     0
370
    -2
100
AcDbLine
 10
1152.499999999999
 20
1431.265796905608
 30
0.0
 11
1152.499999999999
 21
1507.165796905608
 31
0.0
  0
LINE
  5
BDF1
330
B48B
100
AcDbEntity
  8
寸法線
  6
Continuous
 62
     0
370
    -2
100
AcDbLine
 10
1107.499999999999
 20
1492.165796905608
 30
0.0
 11
1092.499999999999
 21
1492.165796905608
 31
0.0
  0
LINE
  5
BDF2
330
B48B
100
AcDbEntity
  8
寸法線
  6
Continuous
 62
     0
370
    -2
100
AcDbLine
 10
1167.499999999999
 20
1492.165796905608
 30
0.0
 11
1228.286802030456
 21
1492.165796905608
 31
0.0
  0
LINE
  5
BDF3
330
B48B
100
AcDbEntity
  8
寸法線
  6
Continuous
 62
     0
370
    -2
100
AcDbLine
 10
1122.499999999999
 20
1492.165796905608
 30
0.0
 11
1152.499999999999
 21
1492.165796905608
 31
0.0
  0
INSERT
  5
BDF4
330
B48B
100
AcDbEntity
  8
寸法線
  6
Continuous
 62
     0
370
    -2
100
AcDbBlockReference
  2
_Open30
 10
1122.499999999999
 20
1492.165796905608
 30
0.0
 41
15.0
 42
15.0
 43
15.0
  0
INSERT
  5
BDF5
330
B48B
100
AcDbEntity
  8
寸法線
  6
Continuous
 62
     0
370
    -2
100
AcDbBlockReference
  2
_Open30
 10
1152.499999999999
 20
1492.165796905608
 30
0.0
 41
15.0
 42
15.0
 43
15.0
 50
180.0
  0
MTEXT
  5
BDF6
330
B48B
100
AcDbEntity
  8
寸法線
  6
Continuous
 62
     0
100
AcDbMText
 10
1205.393401015227
 20
1512.165796905608
 30
0.0
 40
30.0
 41
0.0
 71
     5
 72
     1
  1
30
 73
     1
 44
1.0
1001
ACAD
1000
MTEXTBEGIN
1070
    73
1070
     1
1070
    44
1040
1.0
1070
    74
1070
     0
1000
MTEXTEND
  0
POINT
  5
BDF7
330
B48B
100
AcDbEntity
  8
Defpoints
  6
Continuous
 62
     0
100
AcDbPoint
 10
1122.499999999999
 20
1411.265796905608
 30
0.0
  0
POINT
  5
BDF8
330
B48B
100
AcDbEntity
  8
Defpoints
  6
Continuous
 62
     0
100
AcDbPoint
 10
1152.499999999999
 20
1411.265796905608
 30
0.0
  0
POINT
  5
BDF9
330
B48B
100
AcDbEntity
  8
Defpoints
  6
Continuous
 62
     0
100
AcDbPoint
 10
1152.499999999999
 20
1492.165796905608
 30
0.0
  0
ENDBLK
  5
B48D
330
B48B
100
AcDbEntity
  8
0
 48
3.0
100
AcDbBlockEnd
  0
BLOCK
  5
B49A
330
B499
100
AcDbEntity
  8
0
 48
3.0
100
AcDbBlockBegin
  2
*D33
 70
     1
 10
0.0
 20
0.0
 30
0.0
  3
*D33
  1

  0
LINE
  5
BDFA
330
B499
100
AcDbEntity
  8
寸法線
 62
     0
 48
3.0
370
    -2
100
AcDbLine
 10
1414.999999999999
 20
1372.165796905608
 30
0.0
 11
1600.006973819266
 21
1372.165796905608
 31
0.0
  0
LINE
  5
BDFB
330
B499
100
AcDbEntity
  8
寸法線
 62
     0
 48
3.0
370
    -2
100
AcDbLine
 10
1414.999999999999
 20
1412.165796905608
 30
0.0
 11
1600.006973819266
 21
1412.165796905608
 31
0.0
  0
LINE
  5
BDFC
330
B499
100
AcDbEntity
  8
寸法線
 62
     0
 48
3.0
370
    -2
100
AcDbLine
 10
1585.006973819266
 20
1357.165796905608
 30
0.0
 11
1585.006973819266
 21
1342.165796905607
 31
0.0
  0
LINE
  5
BDFD
330
B499
100
AcDbEntity
  8
寸法線
 62
     0
 48
3.0
370
    -2
100
AcDbLine
 10
1585.006973819266
 20
1427.165796905607
 30
0.0
 11
1585.006973819266
 21
1488.409451727943
 31
0.0
  0
LINE
  5
BDFE
330
B499
100
AcDbEntity
  8
寸法線
 62
     0
 48
3.0
370
    -2
100
AcDbLine
 10
1585.006973819266
 20
1372.165796905608
 30
0.0
 11
1585.006973819266
 21
1412.165796905608
 31
0.0
  0
INSERT
  5
BDFF
330
B499
100
AcDbEntity
  8
寸法線
 62
     0
 48
3.0
370
    -2
100
AcDbBlockReference
  2
_Open30
 10
1585.006973819266
 20
1372.165796905608
 30
0.0
 41
15.0
 42
15.0
 43
15.0
 50
90.0
  0
INSERT
  5
BE00
330
B499
100
AcDbEntity
  8
寸法線
 62
     0
 48
3.0
370
    -2
100
AcDbBlockReference
  2
_Open30
 10
1585.006973819266
 20
1412.165796905608
 30
0.0
 41
15.0
 42
15.0
 43
15.0
 50
270.0
  0
MTEXT
  5
BE01
330
B499
100
AcDbEntity
  8
寸法線
 62
     0
 48
3.0
100
AcDbMText
 10
1565.006973819266
 20
1465.287624316776
 30
0.0
 40
30.0
 41
0.0
 71
     5
 72
     1
  1
40
 11
0.0000000000000001
 21
1.0
 31
0.0
 73
     1
 44
1.0
1001
ACAD
1000
MTEXTBEGIN
1070
    73
1070
     1
1070
    44
1040
1.0
1070
    74
1070
     0
1000
MTEXTEND
  0
POINT
  5
BE02
330
B499
100
AcDbEntity
  8
Defpoints
 62
     0
 48
3.0
100
AcDbPoint
 10
1394.999999999999
 20
1372.165796905608
 30
0.0
  0
POINT
  5
BE03
330
B499
100
AcDbEntity
  8
Defpoints
 62
     0
 48
3.0
100
AcDbPoint
 10
1394.999999999999
 20
1412.165796905608
 30
0.0
  0
POINT
  5
BE04
330
B499
100
AcDbEntity
  8
Defpoints
 62
     0
 48
3.0
100
AcDbPoint
 10
1585.006973819266
 20
1412.165796905608
 30
0.0
  0
ENDBLK
  5
B49B
330
B499
100
AcDbEntity
  8
0
 48
3.0
100
AcDbBlockEnd
  0
BLOCK
  5
B4A8
330
B4A7
100
AcDbEntity
  8
0
 48
3.0
100
AcDbBlockBegin
  2
*D34
 70
     1
 10
0.0
 20
0.0
 30
0.0
  3
*D34
  1

  0
LINE
  5
BE05
330
B4A7
100
AcDbEntity
  8
寸法線
  6
Continuous
 62
     0
370
    -2
100
AcDbLine
 10
1414.999999999999
 20
1380.165796905608
 30
0.0
 11
1520.002042823504
 21
1380.165796905608
 31
0.0
  0
LINE
  5
BE06
330
B4A7
100
AcDbEntity
  8
寸法線
  6
Continuous
 62
     0
370
    -2
100
AcDbLine
 10
1414.999999999999
 20
1412.165796905608
 30
0.0
 11
1520.002042823504
 21
1412.165796905608
 31
0.0
  0
LINE
  5
BE07
330
B4A7
100
AcDbEntity
  8
寸法線
  6
Continuous
 62
     0
370
    -2
100
AcDbLine
 10
1505.002042823504
 20
1365.165796905608
 30
0.0
 11
1505.002042823504
 21
1350.165796905608
 31
0.0
  0
LINE
  5
BE08
330
B4A7
100
AcDbEntity
  8
寸法線
  6
Continuous
 62
     0
370
    -2
100
AcDbLine
 10
1505.002042823504
 20
1427.165796905608
 30
0.0
 11
1505.002042823504
 21
1487.343461880227
 31
0.0
  0
LINE
  5
BE09
330
B4A7
100
AcDbEntity
  8
寸法線
  6
Continuous
 62
     0
370
    -2
100
AcDbLine
 10
1505.002042823504
 20
1380.165796905608
 30
0.0
 11
1505.002042823504
 21
1412.165796905608
 31
0.0
  0
INSERT
  5
BE0A
330
B4A7
100
AcDbEntity
  8
寸法線
  6
Continuous
 62
     0
370
    -2
100
AcDbBlockReference
  2
_Open30
 10
1505.002042823504
 20
1380.165796905608
 30
0.0
 41
15.0
 42
15.0
 43
15.0
 50
90.0
  0
INSERT
  5
BE0B
330
B4A7
100
AcDbEntity
  8
寸法線
  6
Continuous
 62
     0
370
    -2
100
AcDbBlockReference
  2
_Open30
 10
1505.002042823504
 20
1412.165796905608
 30
0.0
 41
15.0
 42
15.0
 43
15.0
 50
270.0
  0
MTEXT
  5
BE0C
330
B4A7
100
AcDbEntity
  8
寸法線
  6
Continuous
 62
     0
100
AcDbMText
 10
1485.002042823504
 20
1464.754629392918
 30
0.0
 40
30.0
 41
0.0
 71
     5
 72
     1
  1
32
 11
0.0000000000000001
 21
1.0
 31
0.0
 73
     1
 44
1.0
1001
ACAD
1000
MTEXTBEGIN
1070
    73
1070
     1
1070
    44
1040
1.0
1070
    74
1070
     0
1000
MTEXTEND
  0
POINT
  5
BE0D
330
B4A7
100
AcDbEntity
  8
Defpoints
  6
Continuous
 62
     0
100
AcDbPoint
 10
1394.999999999999
 20
1380.165796905608
 30
0.0
  0
POINT
  5
BE0E
330
B4A7
100
AcDbEntity
  8
Defpoints
  6
Continuous
 62
     0
100
AcDbPoint
 10
1394.999999999999
 20
1412.165796905608
 30
0.0
  0
POINT
  5
BE0F
330
B4A7
100
AcDbEntity
  8
Defpoints
  6
Continuous
 62
     0
100
AcDbPoint
 10
1505.002042823504
 20
1412.165796905608
 30
0.0
  0
ENDBLK
  5
B4A9
330
B4A7
100
AcDbEntity
  8
0
 48
3.0
100
AcDbBlockEnd
  0
BLOCK
  5
B4B6
330
B4B5
100
AcDbEntity
  8
0
 48
3.0
100
AcDbBlockBegin
  2
*D35
 70
     1
 10
0.0
 20
0.0
 30
0.0
  3
*D35
  1

  0
LINE
  5
BDAC
330
B4B5
100
AcDbEntity
  8
寸法線
 62
     0
 48
3.0
370
    -2
100
AcDbLine
 10
2292.176908156269
 20
1432.165796905607
 30
0.0
 11
2292.176908156269
 21
1584.86385720668
 31
0.0
  0
LINE
  5
BDAD
330
B4B5
100
AcDbEntity
  8
寸法線
 62
     0
 48
3.0
370
    -2
100
AcDbLine
 10
2332.176908156269
 20
1432.165796905608
 30
0.0
 11
2332.176908156269
 21
1584.86385720668
 31
0.0
  0
LINE
  5
BDAE
330
B4B5
100
AcDbEntity
  8
寸法線
 62
     0
 48
3.0
370
    -2
100
AcDbLine
 10
2277.176908156269
 20
1569.86385720668
 30
0.0
 11
2262.176908156269
 21
1569.86385720668
 31
0.0
  0
LINE
  5
BDAF
330
B4B5
100
AcDbEntity
  8
寸法線
 62
     0
 48
3.0
370
    -2
100
AcDbLine
 10
2347.176908156269
 20
1569.86385720668
 30
0.0
 11
2408.420562978605
 21
1569.86385720668
 31
0.0
  0
LINE
  5
BDB0
330
B4B5
100
AcDbEntity
  8
寸法線
 62
     0
 48
3.0
370
    -2
100
AcDbLine
 10
2292.176908156269
 20
1569.86385720668
 30
0.0
 11
2332.176908156269
 21
1569.86385720668
 31
0.0
  0
INSERT
  5
BDB1
330
B4B5
100
AcDbEntity
  8
寸法線
 62
     0
 48
3.0
370
    -2
100
AcDbBlockReference
  2
_Open30
 10
2292.176908156269
 20
1569.86385720668
 30
0.0
 41
15.0
 42
15.0
 43
15.0
  0
INSERT
  5
BDB2
330
B4B5
100
AcDbEntity
  8
寸法線
 62
     0
 48
3.0
370
    -2
100
AcDbBlockReference
  2
_Open30
 10
2332.176908156269
 20
1569.86385720668
 30
0.0
 41
15.0
 42
15.0
 43
15.0
 50
180.0
  0
MTEXT
  5
BDB3
330
B4B5
100
AcDbEntity
  8
寸法線
 62
     0
 48
3.0
100
AcDbMText
 10
2385.298735567437
 20
1589.86385720668
 30
0.0
 40
30.0
 41
0.0
 71
     5
 72
     1
  1
40
 73
     1
 44
1.0
1001
ACAD
1000
MTEXTBEGIN
1070
    73
1070
     1
1070
    44
1040
1.0
1070
    74
1070
     0
1000
MTEXTEND
  0
POINT
  5
BDB4
330
B4B5
100
AcDbEntity
  8
Defpoints
 62
     0
 48
3.0
100
AcDbPoint
 10
2292.176908156269
 20
1412.165796905607
 30
0.0
  0
POINT
  5
BDB5
330
B4B5
100
AcDbEntity
  8
Defpoints
 62
     0
 48
3.0
100
AcDbPoint
 10
2332.176908156269
 20
1412.165796905608
 30
0.0
  0
POINT
  5
BDB6
330
B4B5
100
AcDbEntity
  8
Defpoints
 62
     0
 48
3.0
100
AcDbPoint
 10
2332.176908156269
 20
1569.86385720668
 30
0.0
  0
ENDBLK
  5
B4B7
330
B4B5
100
AcDbEntity
  8
0
 48
3.0
100
AcDbBlockEnd
  0
BLOCK
  5
B4C4
330
B4C3
100
AcDbEntity
  8
0
 48
3.0
100
AcDbBlockBegin
  2
*D36
 70
     1
 10
0.0
 20
0.0
 30
0.0
  3
*D36
  1

  0
LINE
  5
BDB7
330
B4C3
100
AcDbEntity
  8
寸法線
 62
     0
 48
3.0
370
    -2
100
AcDbLine
 10
1968.176908156269
 20
1432.165796905608
 30
0.0
 11
1968.176908156269
 21
1664.860376811634
 31
0.0
  0
LINE
  5
BDB8
330
B4C3
100
AcDbEntity
  8
寸法線
 62
     0
 48
3.0
370
    -2
100
AcDbLine
 10
2332.176908156269
 20
1432.165796905608
 30
0.0
 11
2332.176908156269
 21
1664.860376811634
 31
0.0
  0
LINE
  5
BDB9
330
B4C3
100
AcDbEntity
  8
寸法線
 62
     0
 48
3.0
370
    -2
100
AcDbLine
 10
1983.176908156269
 20
1649.860376811634
 30
0.0
 11
2317.17690815627
 21
1649.860376811634
 31
0.0
  0
INSERT
  5
BDBA
330
B4C3
100
AcDbEntity
  8
寸法線
 62
     0
 48
3.0
370
    -2
100
AcDbBlockReference
  2
_Open30
 10
1968.176908156269
 20
1649.860376811634
 30
0.0
 41
15.0
 42
15.0
 43
15.0
 50
180.0
  0
INSERT
  5
BDBB
330
B4C3
100
AcDbEntity
  8
寸法線
 62
     0
 48
3.0
370
    -2
100
AcDbBlockReference
  2
_Open30
 10
2332.176908156269
 20
1649.860376811634
 30
0.0
 41
15.0
 42
15.0
 43
15.0
  0
MTEXT
  5
BDBC
330
B4C3
100
AcDbEntity
  8
寸法線
 62
     0
 48
3.0
100
AcDbMText
 10
2150.176908156269
 20
1669.860376811634
 30
0.0
 40
30.0
 41
0.0
 71
     5
 72
     1
  1
364
 73
     1
 44
1.0
1001
ACAD
1000
MTEXTBEGIN
1070
    73
1070
     1
1070
    44
1040
1.0
1070
    74
1070
     0
1000
MTEXTEND
  0
POINT
  5
BDBD
330
B4C3
100
AcDbEntity
  8
Defpoints
 62
     0
 48
3.0
100
AcDbPoint
 10
1968.176908156269
 20
1412.165796905608
 30
0.0
  0
POINT
  5
BDBE
330
B4C3
100
AcDbEntity
  8
Defpoints
 62
     0
 48
3.0
100
AcDbPoint
 10
2332.176908156269
 20
1412.165796905608
 30
0.0
  0
POINT
  5
BDBF
330
B4C3
100
AcDbEntity
  8
Defpoints
 62
     0
 48
3.0
100
AcDbPoint
 10
2332.176908156269
 20
1649.860376811634
 30
0.0
  0
ENDBLK
  5
B4C5
330
B4C3
100
AcDbEntity
  8
0
 48
3.0
100
AcDbBlockEnd
  0
BLOCK
  5
B4D0
330
B4CF
100
AcDbEntity
  8
0
 48
3.0
100
AcDbBlockBegin
  2
*D37
 70
     1
 10
0.0
 20
0.0
 30
0.0
  3
*D37
  1

  0
LINE
  5
BDC0
330
B4CF
100
AcDbEntity
  8
寸法線
 62
     0
 48
3.0
370
    -2
100
AcDbLine
 10
2005.176908156269
 20
1354.365796905608
 30
0.0
 11
2005.176908156269
 21
1279.661371558864
 31
0.0
  0
LINE
  5
BDC1
330
B4CF
100
AcDbEntity
  8
寸法線
 62
     0
 48
3.0
370
    -2
100
AcDbLine
 10
2295.176908156269
 20
1354.365796905607
 30
0.0
 11
2295.176908156269
 21
1279.661371558864
 31
0.0
  0
LINE
  5
BDC2
330
B4CF
100
AcDbEntity
  8
寸法線
 62
     0
 48
3.0
370
    -2
100
AcDbLine
 10
2020.176908156269
 20
1294.661371558865
 30
0.0
 11
2280.176908156269
 21
1294.661371558865
 31
0.0
  0
INSERT
  5
BDC3
330
B4CF
100
AcDbEntity
  8
寸法線
 62
     0
 48
3.0
370
    -2
100
AcDbBlockReference
  2
_Open30
 10
2005.176908156269
 20
1294.661371558865
 30
0.0
 41
15.0
 42
15.0
 43
15.0
 50
180.0
  0
INSERT
  5
BDC4
330
B4CF
100
AcDbEntity
  8
寸法線
 62
     0
 48
3.0
370
    -2
100
AcDbBlockReference
  2
_Open30
 10
2295.176908156269
 20
1294.661371558865
 30
0.0
 41
15.0
 42
15.0
 43
15.0
  0
MTEXT
  5
BDC5
330
B4CF
100
AcDbEntity
  8
寸法線
 62
     0
 48
3.0
100
AcDbMText
 10
2150.176908156269
 20
1314.661371558864
 30
0.0
 40
30.0
 41
0.0
 71
     5
 72
     1
  1
290
 73
     1
 44
1.0
1001
ACAD
1000
MTEXTBEGIN
1070
    73
1070
     1
1070
    44
1040
1.0
1070
    74
1070
     0
1000
MTEXTEND
  0
POINT
  5
BDC6
330
B4CF
100
AcDbEntity
  8
Defpoints
 62
     0
 48
3.0
100
AcDbPoint
 10
2005.176908156269
 20
1374.365796905608
 30
0.0
  0
POINT
  5
BDC7
330
B4CF
100
AcDbEntity
  8
Defpoints
 62
     0
 48
3.0
100
AcDbPoint
 10
2295.176908156269
 20
1374.365796905607
 30
0.0
  0
POINT
  5
BDC8
330
B4CF
100
AcDbEntity
  8
Defpoints
 62
     0
 48
3.0
100
AcDbPoint
 10
2295.176908156269
 20
1294.661371558865
 30
0.0
  0
ENDBLK
  5
B4D1
330
B4CF
100
AcDbEntity
  8
0
 48
3.0
100
AcDbBlockEnd
  0
BLOCK
  5
B4DC
330
B4DB
100
AcDbEntity
  8
0
 48
3.0
100
AcDbBlockBegin
  2
*D38
 70
     1
 10
0.0
 20
0.0
 30
0.0
  3
*D38
  1

  0
LINE
  5
BDC9
330
B4DB
100
AcDbEntity
  8
寸法線
 62
     0
 48
3.0
370
    -2
100
AcDbLine
 10
2292.176908156269
 20
1432.165796905607
 30
0.0
 11
2292.176908156269
 21
1584.863857206681
 31
0.0
  0
LINE
  5
BDCA
330
B4DB
100
AcDbEntity
  8
寸法線
 62
     0
 48
3.0
370
    -2
100
AcDbLine
 10
2008.176908156269
 20
1432.165796905608
 30
0.0
 11
2008.176908156269
 21
1584.863857206681
 31
0.0
  0
LINE
  5
BDCB
330
B4DB
100
AcDbEntity
  8
寸法線
 62
     0
 48
3.0
370
    -2
100
AcDbLine
 10
2277.176908156269
 20
1569.863857206681
 30
0.0
 11
2023.176908156269
 21
1569.863857206681
 31
0.0
  0
INSERT
  5
BDCC
330
B4DB
100
AcDbEntity
  8
寸法線
 62
     0
 48
3.0
370
    -2
100
AcDbBlockReference
  2
_Open30
 10
2292.176908156269
 20
1569.863857206681
 30
0.0
 41
15.0
 42
15.0
 43
15.0
  0
INSERT
  5
BDCD
330
B4DB
100
AcDbEntity
  8
寸法線
 62
     0
 48
3.0
370
    -2
100
AcDbBlockReference
  2
_Open30
 10
2008.176908156269
 20
1569.863857206681
 30
0.0
 41
15.0
 42
15.0
 43
15.0
 50
180.0
  0
MTEXT
  5
BDCE
330
B4DB
100
AcDbEntity
  8
寸法線
 62
     0
 48
3.0
100
AcDbMText
 10
2150.176908156269
 20
1589.863857206681
 30
0.0
 40
30.0
 41
0.0
 71
     5
 72
     1
  1
284
 73
     1
 44
1.0
1001
ACAD
1000
MTEXTBEGIN
1070
    73
1070
     1
1070
    44
1040
1.0
1070
    74
1070
     0
1000
MTEXTEND
  0
POINT
  5
BDCF
330
B4DB
100
AcDbEntity
  8
Defpoints
 62
     0
 48
3.0
100
AcDbPoint
 10
2292.176908156269
 20
1412.165796905607
 30
0.0
  0
POINT
  5
BDD0
330
B4DB
100
AcDbEntity
  8
Defpoints
 62
     0
 48
3.0
100
AcDbPoint
 10
2008.176908156269
 20
1412.165796905608
 30
0.0
  0
POINT
  5
BDD1
330
B4DB
100
AcDbEntity
  8
Defpoints
 62
     0
 48
3.0
100
AcDbPoint
 10
2008.176908156269
 20
1569.863857206681
 30
0.0
  0
ENDBLK
  5
B4DD
330
B4DB
100
AcDbEntity
  8
0
 48
3.0
100
AcDbBlockEnd
  0
BLOCK
  5
B4E8
330
B4E7
100
AcDbEntity
  8
0
 48
3.0
100
AcDbBlockBegin
  2
*D39
 70
     1
 10
0.0
 20
0.0
 30
0.0
  3
*D39
  1

  0
LINE
  5
BDD2
330
B4E7
100
AcDbEntity
  8
寸法線
 62
     0
 48
3.0
370
    -2
100
AcDbLine
 10
2008.176908156269
 20
1432.165796905608
 30
0.0
 11
2008.176908156269
 21
1584.863857206681
 31
0.0
  0
LINE
  5
BDD3
330
B4E7
100
AcDbEntity
  8
寸法線
 62
     0
 48
3.0
370
    -2
100
AcDbLine
 10
1968.176908156269
 20
1432.165796905608
 30
0.0
 11
1968.176908156269
 21
1584.863857206681
 31
0.0
  0
LINE
  5
BDD4
330
B4E7
100
AcDbEntity
  8
寸法線
 62
     0
 48
3.0
370
    -2
100
AcDbLine
 10
2023.176908156269
 20
1569.863857206681
 30
0.0
 11
2038.17690815627
 21
1569.863857206681
 31
0.0
  0
LINE
  5
BDD5
330
B4E7
100
AcDbEntity
  8
寸法線
 62
     0
 48
3.0
370
    -2
100
AcDbLine
 10
1953.176908156269
 20
1569.863857206681
 30
0.0
 11
1891.933253333934
 21
1569.863857206681
 31
0.0
  0
LINE
  5
BDD6
330
B4E7
100
AcDbEntity
  8
寸法線
 62
     0
 48
3.0
370
    -2
100
AcDbLine
 10
2008.176908156269
 20
1569.863857206681
 30
0.0
 11
1968.176908156269
 21
1569.863857206681
 31
0.0
  0
INSERT
  5
BDD7
330
B4E7
100
AcDbEntity
  8
寸法線
 62
     0
 48
3.0
370
    -2
100
AcDbBlockReference
  2
_Open30
 10
2008.176908156269
 20
1569.863857206681
 30
0.0
 41
15.0
 42
15.0
 43
15.0
 50
180.0
  0
INSERT
  5
BDD8
330
B4E7
100
AcDbEntity
  8
寸法線
 62
     0
 48
3.0
370
    -2
100
AcDbBlockReference
  2
_Open30
 10
1968.176908156269
 20
1569.863857206681
 30
0.0
 41
15.0
 42
15.0
 43
15.0
  0
MTEXT
  5
BDD9
330
B4E7
100
AcDbEntity
  8
寸法線
 62
     0
 48
3.0
100
AcDbMText
 10
1915.055080745102
 20
1589.863857206681
 30
0.0
 40
30.0
 41
0.0
 71
     5
 72
     1
  1
40
 73
     1
 44
1.0
1001
ACAD
1000
MTEXTBEGIN
1070
    73
1070
     1
1070
    44
1040
1.0
1070
    74
1070
     0
1000
MTEXTEND
  0
POINT
  5
BDDA
330
B4E7
100
AcDbEntity
  8
Defpoints
 62
     0
 48
3.0
100
AcDbPoint
 10
2008.176908156269
 20
1412.165796905608
 30
0.0
  0
POINT
  5
BDDB
330
B4E7
100
AcDbEntity
  8
Defpoints
 62
     0
 48
3.0
100
AcDbPoint
 10
1968.176908156269
 20
1412.165796905608
 30
0.0
  0
POINT
  5
BDDC
330
B4E7
100
AcDbEntity
  8
Defpoints
 62
     0
 48
3.0
100
AcDbPoint
 10
1968.176908156269
 20
1569.863857206681
 30
0.0
  0
ENDBLK
  5
B4E9
330
B4E7
100
AcDbEntity
  8
0
 48
3.0
100
AcDbBlockEnd
  0
BLOCK
  5
B4F6
330
B4F5
100
AcDbEntity
  8
0
 48
3.0
100
AcDbBlockBegin
  2
*D40
 70
     1
 10
0.0
 20
0.0
 30
0.0
  3
*D40
  1

  0
LINE
  5
BDDD
330
B4F5
100
AcDbEntity
  8
寸法線
  6
Continuous
 62
     0
370
    -2
100
AcDbLine
 10
2250.176908156269
 20
1429.865796905607
 30
0.0
 11
2250.176908156269
 21
1504.861906090171
 31
0.0
  0
LINE
  5
BDDE
330
B4F5
100
AcDbEntity
  8
寸法線
  6
Continuous
 62
     0
370
    -2
100
AcDbLine
 10
2200.176908156269
 20
1435.165796905607
 30
0.0
 11
2200.176908156269
 21
1504.861906090171
 31
0.0
  0
LINE
  5
BDDF
330
B4F5
100
AcDbEntity
  8
寸法線
  6
Continuous
 62
     0
370
    -2
100
AcDbLine
 10
2235.176908156269
 20
1489.861906090171
 30
0.0
 11
2215.176908156269
 21
1489.861906090171
 31
0.0
  0
INSERT
  5
BDE0
330
B4F5
100
AcDbEntity
  8
寸法線
  6
Continuous
 62
     0
370
    -2
100
AcDbBlockReference
  2
_Open30
 10
2250.176908156269
 20
1489.861906090171
 30
0.0
 41
15.0
 42
15.0
 43
15.0
  0
INSERT
  5
BDE1
330
B4F5
100
AcDbEntity
  8
寸法線
  6
Continuous
 62
     0
370
    -2
100
AcDbBlockReference
  2
_Open30
 10
2200.176908156269
 20
1489.861906090171
 30
0.0
 41
15.0
 42
15.0
 43
15.0
 50
180.0
  0
MTEXT
  5
BDE2
330
B4F5
100
AcDbEntity
  8
寸法線
  6
Continuous
 62
     0
100
AcDbMText
 10
2225.176908156269
 20
1509.86190609017
 30
0.0
 40
30.0
 41
0.0
 71
     5
 72
     1
  1
50
 73
     1
 44
1.0
1001
ACAD
1000
MTEXTBEGIN
1070
    73
1070
     1
1070
    44
1040
1.0
1070
    74
1070
     0
1000
MTEXTEND
  0
POINT
  5
BDE3
330
B4F5
100
AcDbEntity
  8
Defpoints
  6
Continuous
 62
     0
100
AcDbPoint
 10
2250.176908156269
 20
1409.865796905607
 30
0.0
  0
POINT
  5
BDE4
330
B4F5
100
AcDbEntity
  8
Defpoints
  6
Continuous
 62
     0
100
AcDbPoint
 10
2200.176908156269
 20
1415.165796905608
 30
0.0
  0
POINT
  5
BDE5
330
B4F5
100
AcDbEntity
  8
Defpoints
  6
Continuous
 62
     0
100
AcDbPoint
 10
2200.176908156269
 20
1489.861906090171
 30
0.0
  0
ENDBLK
  5
B4F7
330
B4F5
100
AcDbEntity
  8
0
 48
3.0
100
AcDbBlockEnd
  0
BLOCK
  5
CCE3
330
CCE2
100
AcDbEntity
  8
0
 48
3.0
100
AcDbBlockBegin
  2
*U41
 70
     1
 10
0.0
 20
0.0
 30
0.0
  3
*U41
  1

  0
LINE
  5
CCE9
330
CCE2
100
AcDbEntity
  8
本体
100
AcDbLine
 10
4.999999999999943
 20
16.0
 30
0.0
 11
4.999999999999943
 21
10.0
 31
0.0
  0
LINE
  5
CCEA
330
CCE2
100
AcDbEntity
  8
本体
100
AcDbLine
 10
-0.0000000000000568
 20
16.0
 30
0.0
 11
-0.0000000000000568
 21
10.0
 31
0.0
  0
LINE
  5
CCEB
330
CCE2
100
AcDbEntity
  8
本体
100
AcDbLine
 10
4.999999999999943
 20
16.0
 30
0.0
 11
4.999999999999943
 21
10.0
 31
0.0
  0
LINE
  5
CCEC
330
CCE2
100
AcDbEntity
  8
本体
100
AcDbLine
 10
-0.0000000000000568
 20
16.0
 30
0.0
 11
-0.0000000000000568
 21
10.0
 31
0.0
  0
LINE
  5
CCED
330
CCE2
100
AcDbEntity
  8
本体
100
AcDbLine
 10
4.999999999999943
 20
16.0
 30
0.0
 11
4.999999999999943
 21
10.0
 31
0.0
  0
LINE
  5
CCEE
330
CCE2
100
AcDbEntity
  8
本体
100
AcDbLine
 10
-0.0000000000000568
 20
16.0
 30
0.0
 11
-0.0000000000000568
 21
10.0
 31
0.0
  0
LINE
  5
CCEF
330
CCE2
100
AcDbEntity
  8
本体
  6
Continuous
100
AcDbLine
 10
4.999999999999943
 20
10.0
 30
0.0
 11
29.99999999999995
 21
15.99999999999909
 31
0.0
  0
LINE
  5
CCF0
330
CCE2
100
AcDbEntity
  8
本体
100
AcDbLine
 10
-25.00000000000006
 20
16.0
 30
0.0
 11
-25.00000000000006
 21
10.0
 31
0.0
  0
LINE
  5
CCF1
330
CCE2
100
AcDbEntity
  8
本体
100
AcDbLine
 10
-29.99999999999995
 20
16.0
 30
0.0
 11
-29.99999999999995
 21
10.0
 31
0.0
  0
LINE
  5
CCF2
330
CCE2
100
AcDbEntity
  8
本体
100
AcDbLine
 10
-25.00000000000006
 20
16.0
 30
0.0
 11
-25.00000000000006
 21
10.0
 31
0.0
  0
LINE
  5
CCF3
330
CCE2
100
AcDbEntity
  8
本体
100
AcDbLine
 10
-29.99999999999995
 20
16.0
 30
0.0
 11
-29.99999999999995
 21
10.0
 31
0.0
  0
LINE
  5
CCF4
330
CCE2
100
AcDbEntity
  8
本体
100
AcDbLine
 10
-25.00000000000006
 20
16.0
 30
0.0
 11
-25.00000000000006
 21
10.0
 31
0.0
  0
LINE
  5
CCF5
330
CCE2
100
AcDbEntity
  8
本体
100
AcDbLine
 10
-29.99999999999995
 20
16.0
 30
0.0
 11
-29.99999999999995
 21
10.0
 31
0.0
  0
LINE
  5
CCF6
330
CCE2
100
AcDbEntity
  8
本体
100
AcDbLine
 10
-25.00000000000006
 20
10.0
 30
0.0
 11
-25.99999999999994
 21
9.0
 31
0.0
  0
LINE
  5
CCF7
330
CCE2
100
AcDbEntity
  8
本体
100
AcDbLine
 10
-29.99999999999995
 20
10.0
 30
0.0
 11
-29.00000000000006
 21
9.0
 31
0.0
  0
LINE
  5
CCF8
330
CCE2
100
AcDbEntity
  8
本体
100
AcDbLine
 10
-25.00000000000006
 20
10.0
 30
0.0
 11
-25.99999999999994
 21
9.0
 31
0.0
  0
LINE
  5
CCF9
330
CCE2
100
AcDbEntity
  8
本体
100
AcDbLine
 10
-29.99999999999995
 20
10.0
 30
0.0
 11
-29.00000000000006
 21
9.0
 31
0.0
  0
LINE
  5
CCFA
330
CCE2
100
AcDbEntity
  8
本体
100
AcDbLine
 10
-25.00000000000006
 20
10.0
 30
0.0
 11
-25.99999999999994
 21
9.0
 31
0.0
  0
LINE
  5
CCFB
330
CCE2
100
AcDbEntity
  8
本体
100
AcDbLine
 10
-29.99999999999995
 20
10.0
 30
0.0
 11
-29.00000000000006
 21
9.0
 31
0.0
  0
LINE
  5
CCFC
330
CCE2
100
AcDbEntity
  8
本体
100
AcDbLine
 10
-29.99999999999995
 20
-16.0
 30
0.0
 11
-25.00000000000006
 21
-16.0
 31
0.0
  0
LINE
  5
CCFD
330
CCE2
100
AcDbEntity
  8
本体
100
AcDbLine
 10
-25.00000000000006
 20
-16.0
 30
0.0
 11
-25.00000000000006
 21
-10.0
 31
0.0
  0
LINE
  5
CCFE
330
CCE2
100
AcDbEntity
  8
本体
100
AcDbLine
 10
-25.00000000000006
 20
-10.0
 30
0.0
 11
-25.99999999999994
 21
-9.0
 31
0.0
  0
LINE
  5
CCFF
330
CCE2
100
AcDbEntity
  8
本体
100
AcDbLine
 10
-29.99999999999995
 20
-16.0
 30
0.0
 11
-29.99999999999995
 21
-10.0
 31
0.0
  0
LINE
  5
CD00
330
CCE2
100
AcDbEntity
  8
本体
100
AcDbLine
 10
-29.99999999999995
 20
-10.0
 30
0.0
 11
-29.00000000000006
 21
-9.0
 31
0.0
  0
LINE
  5
CD01
330
CCE2
100
AcDbEntity
  8
本体
100
AcDbLine
 10
-29.99999999999995
 20
-16.0
 30
0.0
 11
-25.00000000000006
 21
-16.0
 31
0.0
  0
LINE
  5
CD02
330
CCE2
100
AcDbEntity
  8
本体
100
AcDbLine
 10
-25.00000000000006
 20
-16.0
 30
0.0
 11
-25.00000000000006
 21
-10.0
 31
0.0
  0
LINE
  5
CD03
330
CCE2
100
AcDbEntity
  8
本体
100
AcDbLine
 10
-25.00000000000006
 20
-10.0
 30
0.0
 11
-25.99999999999994
 21
-9.0
 31
0.0
  0
LINE
  5
CD04
330
CCE2
100
AcDbEntity
  8
本体
100
AcDbLine
 10
-29.99999999999995
 20
-16.0
 30
0.0
 11
-29.99999999999995
 21
-10.0
 31
0.0
  0
LINE
  5
CD05
330
CCE2
100
AcDbEntity
  8
本体
100
AcDbLine
 10
-29.99999999999995
 20
-10.0
 30
0.0
 11
-29.00000000000006
 21
-9.0
 31
0.0
  0
LINE
  5
CD06
330
CCE2
100
AcDbEntity
  8
本体
100
AcDbLine
 10
-29.99999999999995
 20
-16.0
 30
0.0
 11
-25.00000000000006
 21
-16.0
 31
0.0
  0
LINE
  5
CD07
330
CCE2
100
AcDbEntity
  8
本体
100
AcDbLine
 10
-25.00000000000006
 20
-16.0
 30
0.0
 11
-25.00000000000006
 21
-10.0
 31
0.0
  0
LINE
  5
CD08
330
CCE2
100
AcDbEntity
  8
本体
100
AcDbLine
 10
-25.00000000000006
 20
-10.0
 30
0.0
 11
-25.99999999999994
 21
-9.0
 31
0.0
  0
LINE
  5
CD09
330
CCE2
100
AcDbEntity
  8
本体
100
AcDbLine
 10
-29.99999999999995
 20
-16.0
 30
0.0
 11
-29.99999999999995
 21
-10.0
 31
0.0
  0
LINE
  5
CD0A
330
CCE2
100
AcDbEntity
  8
本体
100
AcDbLine
 10
-29.99999999999995
 20
-10.0
 30
0.0
 11
-29.00000000000006
 21
-9.0
 31
0.0
  0
LINE
  5
CD0B
330
CCE2
100
AcDbEntity
  8
本体
100
AcDbLine
 10
-29.00000000000006
 20
9.0
 30
0.0
 11
-29.00000000000006
 21
-9.0
 31
0.0
  0
LINE
  5
CD0C
330
CCE2
100
AcDbEntity
  8
本体
100
AcDbLine
 10
-25.99999999999994
 20
9.0
 30
0.0
 11
-25.99999999999994
 21
-9.0
 31
0.0
  0
LINE
  5
CD0D
330
CCE2
100
AcDbEntity
  8
本体
100
AcDbLine
 10
-29.00000000000006
 20
9.0
 30
0.0
 11
-29.00000000000006
 21
-9.0
 31
0.0
  0
LINE
  5
CD0E
330
CCE2
100
AcDbEntity
  8
本体
100
AcDbLine
 10
-25.99999999999994
 20
9.0
 30
0.0
 11
-25.99999999999994
 21
-9.0
 31
0.0
  0
LINE
  5
CD0F
330
CCE2
100
AcDbEntity
  8
本体
100
AcDbLine
 10
-29.00000000000006
 20
9.0
 30
0.0
 11
-29.00000000000006
 21
-9.0
 31
0.0
  0
LINE
  5
CD10
330
CCE2
100
AcDbEntity
  8
本体
100
AcDbLine
 10
-25.99999999999994
 20
9.0
 30
0.0
 11
-25.99999999999994
 21
-9.0
 31
0.0
  0
LINE
  5
CD11
330
CCE2
100
AcDbEntity
  8
本体
  6
Continuous
100
AcDbLine
 10
4.999999999999943
 20
10.0
 30
0.0
 11
29.99999999999995
 21
9.99999999999909
 31
0.0
  0
LINE
  5
CD12
330
CCE2
100
AcDbEntity
  8
本体
100
AcDbLine
 10
4.999999999999943
 20
10.0
 30
0.0
 11
3.999999999999943
 21
9.0
 31
0.0
  0
LINE
  5
CD13
330
CCE2
100
AcDbEntity
  8
本体
100
AcDbLine
 10
-0.0000000000000568
 20
10.0
 30
0.0
 11
0.9999999999999431
 21
9.0
 31
0.0
  0
LINE
  5
CD14
330
CCE2
100
AcDbEntity
  8
本体
100
AcDbLine
 10
4.999999999999943
 20
10.0
 30
0.0
 11
3.999999999999943
 21
9.0
 31
0.0
  0
LINE
  5
CD15
330
CCE2
100
AcDbEntity
  8
本体
100
AcDbLine
 10
-0.0000000000000568
 20
10.0
 30
0.0
 11
0.9999999999999431
 21
9.0
 31
0.0
  0
LINE
  5
CD16
330
CCE2
100
AcDbEntity
  8
本体
100
AcDbLine
 10
4.999999999999943
 20
10.0
 30
0.0
 11
3.999999999999943
 21
9.0
 31
0.0
  0
LINE
  5
CD17
330
CCE2
100
AcDbEntity
  8
本体
100
AcDbLine
 10
-0.0000000000000568
 20
10.0
 30
0.0
 11
0.9999999999999431
 21
9.0
 31
0.0
  0
LINE
  5
CD18
330
CCE2
100
AcDbEntity
  8
本体
100
AcDbLine
 10
-0.0000000000000568
 20
-16.0
 30
0.0
 11
4.999999999999943
 21
-16.0
 31
0.0
  0
LINE
  5
CD19
330
CCE2
100
AcDbEntity
  8
本体
100
AcDbLine
 10
4.999999999999943
 20
-16.0
 30
0.0
 11
4.999999999999943
 21
-10.0
 31
0.0
  0
LINE
  5
CD1A
330
CCE2
100
AcDbEntity
  8
本体
100
AcDbLine
 10
4.999999999999943
 20
-10.0
 30
0.0
 11
3.999999999999943
 21
-9.0
 31
0.0
  0
LINE
  5
CD1B
330
CCE2
100
AcDbEntity
  8
本体
100
AcDbLine
 10
-0.0000000000000568
 20
-16.0
 30
0.0
 11
-0.0000000000000568
 21
-10.0
 31
0.0
  0
LINE
  5
CD1C
330
CCE2
100
AcDbEntity
  8
本体
100
AcDbLine
 10
-0.0000000000000568
 20
-10.0
 30
0.0
 11
0.9999999999999431
 21
-9.0
 31
0.0
  0
LINE
  5
CD1D
330
CCE2
100
AcDbEntity
  8
本体
100
AcDbLine
 10
-0.0000000000000568
 20
-16.0
 30
0.0
 11
4.999999999999943
 21
-16.0
 31
0.0
  0
LINE
  5
CD1E
330
CCE2
100
AcDbEntity
  8
本体
100
AcDbLine
 10
4.999999999999943
 20
-16.0
 30
0.0
 11
4.999999999999943
 21
-10.0
 31
0.0
  0
LINE
  5
CD1F
330
CCE2
100
AcDbEntity
  8
本体
100
AcDbLine
 10
4.999999999999943
 20
-10.0
 30
0.0
 11
3.999999999999943
 21
-9.0
 31
0.0
  0
LINE
  5
CD20
330
CCE2
100
AcDbEntity
  8
本体
100
AcDbLine
 10
-0.0000000000000568
 20
-16.0
 30
0.0
 11
-0.0000000000000568
 21
-10.0
 31
0.0
  0
LINE
  5
CD21
330
CCE2
100
AcDbEntity
  8
本体
100
AcDbLine
 10
-0.0000000000000568
 20
-10.0
 30
0.0
 11
0.9999999999999431
 21
-9.0
 31
0.0
  0
LINE
  5
CD22
330
CCE2
100
AcDbEntity
  8
本体
100
AcDbLine
 10
-0.0000000000000568
 20
-16.0
 30
0.0
 11
4.999999999999943
 21
-16.0
 31
0.0
  0
LINE
  5
CD23
330
CCE2
100
AcDbEntity
  8
本体
100
AcDbLine
 10
4.999999999999943
 20
-16.0
 30
0.0
 11
4.999999999999943
 21
-10.0
 31
0.0
  0
LINE
  5
CD24
330
CCE2
100
AcDbEntity
  8
本体
100
AcDbLine
 10
4.999999999999943
 20
-10.0
 30
0.0
 11
3.999999999999943
 21
-9.0
 31
0.0
  0
LINE
  5
CD25
330
CCE2
100
AcDbEntity
  8
本体
100
AcDbLine
 10
-0.0000000000000568
 20
-16.0
 30
0.0
 11
-0.0000000000000568
 21
-10.0
 31
0.0
  0
LINE
  5
CD26
330
CCE2
100
AcDbEntity
  8
本体
100
AcDbLine
 10
-0.0000000000000568
 20
-10.0
 30
0.0
 11
0.9999999999999431
 21
-9.0
 31
0.0
  0
LINE
  5
CD27
330
CCE2
100
AcDbEntity
  8
本体
100
AcDbLine
 10
0.9999999999999431
 20
9.0
 30
0.0
 11
0.9999999999999431
 21
-9.0
 31
0.0
  0
LINE
  5
CD28
330
CCE2
100
AcDbEntity
  8
本体
100
AcDbLine
 10
3.999999999999943
 20
9.0
 30
0.0
 11
3.999999999999943
 21
-9.0
 31
0.0
  0
LINE
  5
CD29
330
CCE2
100
AcDbEntity
  8
本体
100
AcDbLine
 10
0.9999999999999431
 20
9.0
 30
0.0
 11
0.9999999999999431
 21
-9.0
 31
0.0
  0
LINE
  5
CD2A
330
CCE2
100
AcDbEntity
  8
本体
100
AcDbLine
 10
3.999999999999943
 20
9.0
 30
0.0
 11
3.999999999999943
 21
-9.0
 31
0.0
  0
LINE
  5
CD2B
330
CCE2
100
AcDbEntity
  8
本体
100
AcDbLine
 10
0.9999999999999431
 20
9.0
 30
0.0
 11
0.9999999999999431
 21
-9.0
 31
0.0
  0
LINE
  5
CD2C
330
CCE2
100
AcDbEntity
  8
本体
100
AcDbLine
 10
3.999999999999943
 20
9.0
 30
0.0
 11
3.999999999999943
 21
-9.0
 31
0.0
  0
LINE
  5
CD2D
330
CCE2
100
AcDbEntity
  8
本体
  6
Continuous
100
AcDbLine
 10
-25.00000000000006
 20
16.0
 30
0.0
 11
-0.0000000000000568
 21
15.99999999999909
 31
0.0
  0
LINE
  5
CD2E
330
CCE2
100
AcDbEntity
  8
本体
100
AcDbLine
 10
-29.99999999999995
 20
16.0
 30
0.0
 11
-25.00000000000006
 21
16.0
 31
0.0
  0
LINE
  5
CD2F
330
CCE2
100
AcDbEntity
  8
本体
100
AcDbLine
 10
-29.99999999999995
 20
16.0
 30
0.0
 11
-25.00000000000006
 21
16.0
 31
0.0
  0
LINE
  5
CD30
330
CCE2
100
AcDbEntity
  8
本体
100
AcDbLine
 10
-29.99999999999995
 20
16.0
 30
0.0
 11
-25.00000000000006
 21
16.0
 31
0.0
  0
LINE
  5
CD31
330
CCE2
100
AcDbEntity
  8
本体
  6
Continuous
100
AcDbLine
 10
4.999999999999943
 20
16.0
 30
0.0
 11
29.99999999999995
 21
15.99999999999909
 31
0.0
  0
LINE
  5
CD32
330
CCE2
100
AcDbEntity
  8
本体
100
AcDbLine
 10
-0.0000000000000568
 20
16.0
 30
0.0
 11
4.999999999999943
 21
16.0
 31
0.0
  0
LINE
  5
CD33
330
CCE2
100
AcDbEntity
  8
本体
100
AcDbLine
 10
-0.0000000000000568
 20
16.0
 30
0.0
 11
4.999999999999943
 21
16.0
 31
0.0
  0
LINE
  5
CD34
330
CCE2
100
AcDbEntity
  8
本体
100
AcDbLine
 10
-0.0000000000000568
 20
16.0
 30
0.0
 11
4.999999999999943
 21
16.0
 31
0.0
  0
HATCH
  5
CD35
330
CCE2
100
AcDbEntity
  8
エンボス
 48
3.0
100
AcDbHatch
 10
0.0
 20
0.0
 30
0.0
210
0.0
220
0.0
230
1.0
  2
ANSI31
 70
     0
 71
     0
 91
        1
 92
        7
 72
     0
 73
     1
 93
        8
 10
0.9999999999999431
 20
9.0
 10
-0.0000000000000568
 20
10.0
 10
-0.0000000000000568
 20
16.0
 10
-25.00000000000006
 20
16.0
 10
-25.00000000000006
 20
10.0
 10
-25.99999999999994
 20
9.0
 10
-25.99999999999994
 20
1.0
 10
0.9999999999999431
 20
1.0
 97
        0
 75
     1
 76
     1
 52
0.0
 41
1.0
 77
     0
 78
     1
 53
45.0
 43
-2990.990385083416
 44
-706.1860845613164
 45
-2.245064030267287
 46
2.245064030267287
 79
     0
 47
0.1880432145654093
 98
        1
 10
-15.97842027123812
 20
8.767959101282031
1001
GradientColor1ACI
1070
     5
1001
GradientColor2ACI
1070
     2
1001
ACAD
1010
0.0
1020
0.0
1030
0.0
  0
LINE
  5
CD36
330
CCE2
100
AcDbEntity
  8
本体
 48
3.0
100
AcDbLine
 10
-25.99999999999994
 20
1.0
 30
0.0
 11
0.9999999999999431
 21
1.0
 31
0.0
  0
LINE
  5
CD37
330
CCE2
100
AcDbEntity
  8
本体
 48
3.0
100
AcDbLine
 10
-25.99999999999994
 20
-2.0
 30
0.0
 11
0.9999999999999431
 21
-2.0
 31
0.0
  0
ENDBLK
  5
CCE4
330
CCE2
100
AcDbEntity
  8
0
 48
3.0
100
AcDbBlockEnd
  0
BLOCK
  5
CCE6
330
CCE5
100
AcDbEntity
  8
0
 48
3.0
100
AcDbBlockBegin
  2
*U42
 70
     1
 10
0.0
 20
0.0
 30
0.0
  3
*U42
  1

  0
INSERT
  5
CD46
330
CCE5
100
AcDbEntity
  8
エンボス
  6
ByBlock
 62
     0
370
    -2
380
     1
100
AcDbBlockReference
  2
*U41
 10
0.0
 20
0.0
 30
0.0
  0
INSERT
  5
CD47
330
CCE5
100
AcDbEntity
  8
エンボス
  6
ByBlock
 62
     0
370
    -2
380
     1
100
AcDbBlockReference
  2
*U41
 10
60.0
 20
0.0
 30
0.0
  0
INSERT
  5
CD48
330
CCE5
100
AcDbEntity
  8
エンボス
  6
ByBlock
 62
     0
370
    -2
380
     1
100
AcDbBlockReference
  2
*U41
 10
120.0
 20
0.0
 30
0.0
  0
INSERT
  5
CD49
330
CCE5
100
AcDbEntity
  8
エンボス
  6
ByBlock
 62
     0
370
    -2
380
     1
100
AcDbBlockReference
  2
*U41
 10
180.0
 20
0.0
 30
0.0
  0
INSERT
  5
CD4A
330
CCE5
100
AcDbEntity
  8
エンボス
  6
ByBlock
 62
     0
370
    -2
380
     1
100
AcDbBlockReference
  2
*U41
 10
240.0
 20
0.0
 30
0.0
  0
INSERT
  5
CD4B
330
CCE5
100
AcDbEntity
  8
エンボス
  6
ByBlock
 62
     0
370
    -2
380
     1
100
AcDbBlockReference
  2
*U41
 10
300.0
 20
0.0
 30
0.0
  0
INSERT
  5
CD4C
330
CCE5
100
AcDbEntity
  8
エンボス
  6
ByBlock
 62
     0
370
    -2
380
     1
100
AcDbBlockReference
  2
*U41
 10
360.0
 20
0.0
 30
0.0
  0
INSERT
  5
CD4D
330
CCE5
100
AcDbEntity
  8
エンボス
  6
ByBlock
 62
     0
370
    -2
380
     1
100
AcDbBlockReference
  2
*U41
 10
420.0
 20
0.0
 30
0.0
  0
INSERT
  5
CD4E
330
CCE5
100
AcDbEntity
  8
エンボス
  6
ByBlock
 62
     0
370
    -2
380
     1
100
AcDbBlockReference
  2
*U41
 10
480.0
 20
0.0
 30
0.0
  0
INSERT
  5
CD4F
330
CCE5
100
AcDbEntity
  8
エンボス
  6
ByBlock
 62
     0
370
    -2
380
     1
100
AcDbBlockReference
  2
*U41
 10
540.0
 20
0.0
 30
0.0
  0
INSERT
  5
CD50
330
CCE5
100
AcDbEntity
  8
エンボス
  6
ByBlock
 62
     0
370
    -2
380
     1
100
AcDbBlockReference
  2
*U41
 10
600.0
 20
0.0
 30
0.0
  0
INSERT
  5
CD51
330
CCE5
100
AcDbEntity
  8
エンボス
  6
ByBlock
 62
     0
370
    -2
380
     1
100
AcDbBlockReference
  2
*U41
 10
660.0
 20
0.0
 30
0.0
  0
INSERT
  5
CD52
330
CCE5
100
AcDbEntity
  8
エンボス
  6
ByBlock
 62
     0
370
    -2
380
     1
100
AcDbBlockReference
  2
*U41
 10
720.0
 20
0.0
 30
0.0
  0
INSERT
  5
CD53
330
CCE5
100
AcDbEntity
  8
エンボス
  6
ByBlock
 62
     0
370
    -2
380
     1
100
AcDbBlockReference
  2
*U41
 10
780.0
 20
0.0
 30
0.0
  0
INSERT
  5
CD54
330
CCE5
100
AcDbEntity
  8
エンボス
  6
ByBlock
 62
     0
370
    -2
380
     1
100
AcDbBlockReference
  2
*U41
 10
840.0
 20
0.0
 30
0.0
  0
INSERT
  5
CD55
330
CCE5
100
AcDbEntity
  8
エンボス
  6
ByBlock
 62
     0
370
    -2
380
     1
100
AcDbBlockReference
  2
*U41
 10
900.0
 20
0.0
 30
0.0
  0
ENDBLK
  5
CCE7
330
CCE5
100
AcDbEntity
  8
0
 48
3.0
100
AcDbBlockEnd
  0
BLOCK
  5
CD58
330
CD57
100
AcDbEntity
  8
0
 48
3.0
100
AcDbBlockBegin
  2
*U43
 70
     1
 10
0.0
 20
0.0
 30
0.0
  3
*U43
  1

  0
LINE
  5
CD5E
330
CD57
100
AcDbEntity
  8
本体
  6
Continuous
100
AcDbLine
 10
-15.0
 20
-53.00000000000011
 30
0.0
 11
-15.0
 21
-97.0
 31
0.0
  0
LINE
  5
CD5F
330
CD57
100
AcDbEntity
  8
本体
  6
Continuous
100
AcDbLine
 10
-10.0
 20
-53.00000000000011
 30
0.0
 11
-10.0
 21
-97.0
 31
0.0
  0
LINE
  5
CD60
330
CD57
100
AcDbEntity
  8
本体
  6
Continuous
100
AcDbLine
 10
-10.0
 20
-103.0000000000001
 30
0.0
 11
-10.0
 21
-142.0000000000004
 31
0.0
  0
LINE
  5
CD61
330
CD57
100
AcDbEntity
  8
本体
  6
Continuous
100
AcDbLine
 10
-15.0
 20
-103.0000000000001
 30
0.0
 11
-15.0
 21
-142.0000000000004
 31
0.0
  0
LINE
  5
CD62
330
CD57
100
AcDbEntity
  8
エンボス
  6
Continuous
100
AcDbLine
 10
-15.0
 20
-135.488445805121
 30
0.0
 11
-10.0
 21
-133.488445805121
 31
0.0
  0
LINE
  5
CD63
330
CD57
100
AcDbEntity
  8
エンボス
  6
Continuous
100
AcDbLine
 10
-10.0
 20
-140.6884458051214
 30
0.0
 11
-15.0
 21
-138.488445805121
 31
0.0
  0
LINE
  5
CD64
330
CD57
100
AcDbEntity
  8
本体
  6
Continuous
100
AcDbLine
 10
-15.0
 20
-103.0000000000001
 30
0.0
 11
15.0
 21
-97.0
 31
0.0
  0
LINE
  5
CD65
330
CD57
100
AcDbEntity
  8
エンボス
  6
Continuous
100
AcDbLine
 10
-10.0
 20
-93.31247253322089
 30
0.0
 11
-15.0
 21
-91.31247253322101
 31
0.0
  0
LINE
  5
CD66
330
CD57
100
AcDbEntity
  8
エンボス
  6
Continuous
100
AcDbLine
 10
-10.0
 20
-112.488445805121
 30
0.0
 11
-15.0
 21
-110.488445805121
 31
0.0
  0
LINE
  5
CD67
330
CD57
100
AcDbEntity
  8
エンボス
  6
Continuous
100
AcDbLine
 10
-10.0
 20
-124.488445805121
 30
0.0
 11
-15.0
 21
-126.488445805121
 31
0.0
  0
LINE
  5
CD68
330
CD57
100
AcDbEntity
  8
エンボス
  6
Continuous
100
AcDbLine
 10
-15.0
 20
-119.488445805121
 30
0.0
 11
-10.0
 21
-121.488445805121
 31
0.0
  0
LINE
  5
CD69
330
CD57
100
AcDbEntity
  8
エンボス
  6
Continuous
100
AcDbLine
 10
-15.0
 20
-107.488445805121
 30
0.0
 11
-10.0
 21
-105.488445805121
 31
0.0
  0
LINE
  5
CD6A
330
CD57
100
AcDbEntity
  8
本体
  6
Continuous
100
AcDbLine
 10
-10.0
 20
96.99999999999988
 30
0.0
 11
-10.0
 21
53.0
 31
0.0
  0
LINE
  5
CD6B
330
CD57
100
AcDbEntity
  8
本体
  6
Continuous
100
AcDbLine
 10
-15.0
 20
96.99999999999988
 30
0.0
 11
-15.0
 21
53.0
 31
0.0
  0
LINE
  5
CD6C
330
CD57
100
AcDbEntity
  8
本体
  6
Continuous
100
AcDbLine
 10
-10.0
 20
-3.000000000000113
 30
0.0
 11
-10.0
 21
-47.0
 31
0.0
  0
LINE
  5
CD6D
330
CD57
100
AcDbEntity
  8
本体
  6
Continuous
100
AcDbLine
 10
-15.0
 20
-3.000000000000113
 30
0.0
 11
-15.0
 21
-47.0
 31
0.0
  0
LINE
  5
CD6E
330
CD57
100
AcDbEntity
  8
本体
  6
Continuous
100
AcDbLine
 10
-15.0
 20
-53.00000000000011
 30
0.0
 11
15.0
 21
-47.0
 31
0.0
  0
LINE
  5
CD6F
330
CD57
100
AcDbEntity
  8
エンボス
  6
Continuous
100
AcDbLine
 10
-15.0
 20
-60.31247253322089
 30
0.0
 11
-10.0
 21
-58.31247253322101
 31
0.0
  0
LINE
  5
CD70
330
CD57
100
AcDbEntity
  8
エンボス
  6
Continuous
100
AcDbLine
 10
-10.0
 20
-65.31247253322101
 30
0.0
 11
-15.0
 21
-63.31247253322089
 31
0.0
  0
LINE
  5
CD71
330
CD57
100
AcDbEntity
  8
エンボス
  6
Continuous
100
AcDbLine
 10
-15.0
 20
-88.31247253322089
 30
0.0
 11
-10.0
 21
-86.31247253322101
 31
0.0
  0
LINE
  5
CD72
330
CD57
100
AcDbEntity
  8
エンボス
  6
Continuous
100
AcDbLine
 10
-10.0
 20
-77.3124725332209
 30
0.0
 11
-15.0
 21
-79.31247253322101
 31
0.0
  0
LINE
  5
CD73
330
CD57
100
AcDbEntity
  8
エンボス
  6
Continuous
100
AcDbLine
 10
-15.0
 20
-72.3124725332209
 30
0.0
 11
-10.0
 21
-74.31247253322101
 31
0.0
  0
LINE
  5
CD74
330
CD57
100
AcDbEntity
  8
エンボス
  6
Continuous
100
AcDbLine
 10
-15.0
 20
-22.3124725332209
 30
0.0
 11
-10.0
 21
-24.31247253322101
 31
0.0
  0
LINE
  5
CD75
330
CD57
100
AcDbEntity
  8
エンボス
  6
Continuous
100
AcDbLine
 10
-10.0
 20
-27.3124725332209
 30
0.0
 11
-15.0
 21
-29.31247253322101
 31
0.0
  0
LINE
  5
CD76
330
CD57
100
AcDbEntity
  8
エンボス
  6
Continuous
100
AcDbLine
 10
-10.0
 20
-15.31247253322101
 30
0.0
 11
-15.0
 21
-13.3124725332209
 31
0.0
  0
LINE
  5
CD77
330
CD57
100
AcDbEntity
  8
エンボス
  6
Continuous
100
AcDbLine
 10
-15.0
 20
-38.3124725332209
 30
0.0
 11
-10.0
 21
-36.31247253322101
 31
0.0
  0
LINE
  5
CD78
330
CD57
100
AcDbEntity
  8
エンボス
  6
Continuous
100
AcDbLine
 10
-10.0
 20
-43.31247253322089
 30
0.0
 11
-15.0
 21
-41.31247253322101
 31
0.0
  0
LINE
  5
CD79
330
CD57
100
AcDbEntity
  8
エンボス
  6
Continuous
100
AcDbLine
 10
-15.0
 20
27.68752746677922
 30
0.0
 11
-10.0
 21
25.68752746677899
 31
0.0
  0
LINE
  5
CD7A
330
CD57
100
AcDbEntity
  8
本体
  6
Continuous
100
AcDbLine
 10
-10.0
 20
46.99999999999988
 30
0.0
 11
-10.0
 21
3.0
 31
0.0
  0
LINE
  5
CD7B
330
CD57
100
AcDbEntity
  8
本体
  6
Continuous
100
AcDbLine
 10
-15.0
 20
46.99999999999988
 30
0.0
 11
-15.0
 21
3.0
 31
0.0
  0
LINE
  5
CD7C
330
CD57
100
AcDbEntity
  8
本体
  6
Continuous
100
AcDbLine
 10
-15.0
 20
-3.000000000000113
 30
0.0
 11
15.0
 21
3.0
 31
0.0
  0
LINE
  5
CD7D
330
CD57
100
AcDbEntity
  8
エンボス
  6
Continuous
100
AcDbLine
 10
-15.0
 20
-10.31247253322089
 30
0.0
 11
-10.0
 21
-8.312472533221011
 31
0.0
  0
LINE
  5
CD7E
330
CD57
100
AcDbEntity
  8
エンボス
  6
Continuous
100
AcDbLine
 10
-10.0
 20
22.68752746677922
 30
0.0
 11
-15.0
 21
20.68752746677899
 31
0.0
  0
LINE
  5
CD7F
330
CD57
100
AcDbEntity
  8
エンボス
  6
Continuous
100
AcDbLine
 10
-15.0
 20
11.6875274667791
 30
0.0
 11
-10.0
 21
13.68752746677899
 31
0.0
  0
LINE
  5
CD80
330
CD57
100
AcDbEntity
  8
エンボス
  6
Continuous
100
AcDbLine
 10
-10.0
 20
6.687527466779101
 30
0.0
 11
-15.0
 21
8.687527466778988
 31
0.0
  0
LINE
  5
CD81
330
CD57
100
AcDbEntity
  8
本体
  6
Continuous
100
AcDbLine
 10
-15.0
 20
46.99999999999988
 30
0.0
 11
15.0
 21
53.0
 31
0.0
  0
LINE
  5
CD82
330
CD57
100
AcDbEntity
  8
エンボス
  6
Continuous
100
AcDbLine
 10
-10.0
 20
34.68752746677899
 30
0.0
 11
-15.0
 21
36.68752746677922
 31
0.0
  0
LINE
  5
CD83
330
CD57
100
AcDbEntity
  8
エンボス
  6
Continuous
100
AcDbLine
 10
-15.0
 20
39.68752746677921
 30
0.0
 11
-10.0
 21
41.68752746677898
 31
0.0
  0
LINE
  5
CD84
330
CD57
100
AcDbEntity
  8
エンボス
  6
Continuous
100
AcDbLine
 10
-10.0
 20
56.68752746677921
 30
0.0
 11
-15.0
 21
58.68752746677898
 31
0.0
  0
LINE
  5
CD85
330
CD57
100
AcDbEntity
  8
エンボス
  6
Continuous
100
AcDbLine
 10
-15.0
 20
61.68752746677921
 30
0.0
 11
-10.0
 21
63.68752746677898
 31
0.0
  0
LINE
  5
CD86
330
CD57
100
AcDbEntity
  8
本体
  6
Continuous
100
AcDbLine
 10
-15.0
 20
142.0000000000004
 30
0.0
 11
-15.0
 21
103.0
 31
0.0
  0
LINE
  5
CD87
330
CD57
100
AcDbEntity
  8
本体
  6
Continuous
100
AcDbLine
 10
-10.0
 20
142.0000000000004
 30
0.0
 11
-10.0
 21
103.0
 31
0.0
  0
LINE
  5
CD88
330
CD57
100
AcDbEntity
  8
本体
  6
Continuous
100
AcDbLine
 10
-15.0
 20
96.99999999999988
 30
0.0
 11
15.0
 21
103.0
 31
0.0
  0
LINE
  5
CD89
330
CD57
100
AcDbEntity
  8
エンボス
  6
Continuous
100
AcDbLine
 10
-15.0
 20
89.68752746677921
 30
0.0
 11
-10.0
 21
91.68752746677899
 31
0.0
  0
LINE
  5
CD8A
330
CD57
100
AcDbEntity
  8
エンボス
  6
Continuous
100
AcDbLine
 10
-10.0
 20
84.68752746677898
 30
0.0
 11
-15.0
 21
86.68752746677922
 31
0.0
  0
LINE
  5
CD8B
330
CD57
100
AcDbEntity
  8
エンボス
  6
Continuous
100
AcDbLine
 10
-10.0
 20
72.68752746677922
 30
0.0
 11
-15.0
 21
70.68752746677898
 31
0.0
  0
LINE
  5
CD8C
330
CD57
100
AcDbEntity
  8
エンボス
  6
Continuous
100
AcDbLine
 10
-15.0
 20
77.68752746677922
 30
0.0
 11
-10.0
 21
75.68752746677898
 31
0.0
  0
LINE
  5
CD8D
330
CD57
100
AcDbEntity
  8
嵩上断面
  6
Continuous
100
AcDbLine
 10
-15.0
 20
137.8900616752051
 30
0.0
 11
-10.0
 21
140.0900616752053
 31
0.0
  0
LINE
  5
CD8E
330
CD57
100
AcDbEntity
  8
エンボス
  6
Continuous
100
AcDbLine
 10
-10.0
 20
132.8900616752052
 30
0.0
 11
-15.0
 21
134.8900616752052
 31
0.0
  0
LINE
  5
CD8F
330
CD57
100
AcDbEntity
  8
エンボス
  6
Continuous
100
AcDbLine
 10
-15.0
 20
125.8900616752052
 30
0.0
 11
-10.0
 21
123.8900616752051
 31
0.0
  0
LINE
  5
CD90
330
CD57
100
AcDbEntity
  8
エンボス
  6
Continuous
100
AcDbLine
 10
-10.0
 20
120.8900616752051
 30
0.0
 11
-15.0
 21
118.8900616752051
 31
0.0
  0
LINE
  5
CD91
330
CD57
100
AcDbEntity
  8
エンボス
  6
Continuous
100
AcDbLine
 10
-10.0
 20
104.8900616752052
 30
0.0
 11
-15.0
 21
106.8900616752052
 31
0.0
  0
LINE
  5
CD92
330
CD57
100
AcDbEntity
  8
エンボス
  6
Continuous
100
AcDbLine
 10
-15.0
 20
109.8900616752052
 30
0.0
 11
-10.0
 21
111.8900616752052
 31
0.0
  0
ENDBLK
  5
CD59
330
CD57
100
AcDbEntity
  8
0
 48
3.0
100
AcDbBlockEnd
  0
BLOCK
  5
CD5B
330
CD5A
100
AcDbEntity
  8
0
 48
3.0
100
AcDbBlockBegin
  2
*U44
 70
     1
 10
0.0
 20
0.0
 30
0.0
  3
*U44
  1

  0
INSERT
  5
CD9D
330
CD5A
100
AcDbEntity
  8
エンボス
  6
ByBlock
 62
     0
370
    -2
380
     1
100
AcDbBlockReference
  2
*U43
 10
0.0
 20
0.0
 30
0.0
  0
INSERT
  5
CD9E
330
CD5A
100
AcDbEntity
  8
エンボス
  6
ByBlock
 62
     0
370
    -2
380
     1
100
AcDbBlockReference
  2
*U43
 10
30.0
 20
0.0
 30
0.0
  0
INSERT
  5
CD9F
330
CD5A
100
AcDbEntity
  8
エンボス
  6
ByBlock
 62
     0
370
    -2
380
     1
100
AcDbBlockReference
  2
*U43
 10
60.0
 20
0.0
 30
0.0
  0
INSERT
  5
CDA0
330
CD5A
100
AcDbEntity
  8
エンボス
  6
ByBlock
 62
     0
370
    -2
380
     1
100
AcDbBlockReference
  2
*U43
 10
90.0
 20
0.0
 30
0.0
  0
INSERT
  5
CDA1
330
CD5A
100
AcDbEntity
  8
エンボス
  6
ByBlock
 62
     0
370
    -2
380
     1
100
AcDbBlockReference
  2
*U43
 10
120.0
 20
0.0
 30
0.0
  0
INSERT
  5
CDA2
330
CD5A
100
AcDbEntity
  8
エンボス
  6
ByBlock
 62
     0
370
    -2
380
     1
100
AcDbBlockReference
  2
*U43
 10
150.0
 20
0.0
 30
0.0
  0
INSERT
  5
CDA3
330
CD5A
100
AcDbEntity
  8
エンボス
  6
ByBlock
 62
     0
370
    -2
380
     1
100
AcDbBlockReference
  2
*U43
 10
180.0
 20
0.0
 30
0.0
  0
INSERT
  5
CDA4
330
CD5A
100
AcDbEntity
  8
エンボス
  6
ByBlock
 62
     0
370
    -2
380
     1
100
AcDbBlockReference
  2
*U43
 10
210.0
 20
0.0
 30
0.0
  0
INSERT
  5
CDA5
330
CD5A
100
AcDbEntity
  8
エンボス
  6
ByBlock
 62
     0
370
    -2
380
     1
100
AcDbBlockReference
  2
*U43
 10
240.0
 20
0.0
 30
0.0
  0
INSERT
  5
CDA6
330
CD5A
100
AcDbEntity
  8
エンボス
  6
ByBlock
 62
     0
370
    -2
380
     1
100
AcDbBlockReference
  2
*U43
 10
270.0
 20
0.0
 30
0.0
  0
INSERT
  5
CDA7
330
CD5A
100
AcDbEntity
  8
エンボス
  6
ByBlock
 62
     0
370
    -2
380
     1
100
AcDbBlockReference
  2
*U43
 10
300.0
 20
0.0
 30
0.0
  0
INSERT
  5
CDA8
330
CD5A
100
AcDbEntity
  8
エンボス
  6
ByBlock
 62
     0
370
    -2
380
     1
100
AcDbBlockReference
  2
*U43
 10
330.0
 20
0.0
 30
0.0
  0
INSERT
  5
CDA9
330
CD5A
100
AcDbEntity
  8
エンボス
  6
ByBlock
 62
     0
370
    -2
380
     1
100
AcDbBlockReference
  2
*U43
 10
360.0
 20
0.0
 30
0.0
  0
INSERT
  5
CDAA
330
CD5A
100
AcDbEntity
  8
エンボス
  6
ByBlock
 62
     0
370
    -2
380
     1
100
AcDbBlockReference
  2
*U43
 10
390.0
 20
0.0
 30
0.0
  0
INSERT
  5
CDAB
330
CD5A
100
AcDbEntity
  8
エンボス
  6
ByBlock
 62
     0
370
    -2
380
     1
100
AcDbBlockReference
  2
*U43
 10
420.0
 20
0.0
 30
0.0
  0
INSERT
  5
CDAC
330
CD5A
100
AcDbEntity
  8
エンボス
  6
ByBlock
 62
     0
370
    -2
380
     1
100
AcDbBlockReference
  2
*U43
 10
450.0
 20
0.0
 30
0.0
  0
INSERT
  5
CDAD
330
CD5A
100
AcDbEntity
  8
エンボス
  6
ByBlock
 62
     0
370
    -2
380
     1
100
AcDbBlockReference
  2
*U43
 10
480.0
 20
0.0
 30
0.0
  0
INSERT
  5
CDAE
330
CD5A
100
AcDbEntity
  8
エンボス
  6
ByBlock
 62
     0
370
    -2
380
     1
100
AcDbBlockReference
  2
*U43
 10
510.0
 20
0.0
 30
0.0
  0
INSERT
  5
CDAF
330
CD5A
100
AcDbEntity
  8
エンボス
  6
ByBlock
 62
     0
370
    -2
380
     1
100
AcDbBlockReference
  2
*U43
 10
540.0
 20
0.0
 30
0.0
  0
INSERT
  5
CDB0
330
CD5A
100
AcDbEntity
  8
エンボス
  6
ByBlock
 62
     0
370
    -2
380
     1
100
AcDbBlockReference
  2
*U43
 10
570.0
 20
0.0
 30
0.0
  0
INSERT
  5
CDB1
330
CD5A
100
AcDbEntity
  8
エンボス
  6
ByBlock
 62
     0
370
    -2
380
     1
100
AcDbBlockReference
  2
*U43
 10
600.0
 20
0.0
 30
0.0
  0
INSERT
  5
CDB2
330
CD5A
100
AcDbEntity
  8
エンボス
  6
ByBlock
 62
     0
370
    -2
380
     1
100
AcDbBlockReference
  2
*U43
 10
630.0
 20
0.0
 30
0.0
  0
INSERT
  5
CDB3
330
CD5A
100
AcDbEntity
  8
エンボス
  6
ByBlock
 62
     0
370
    -2
380
     1
100
AcDbBlockReference
  2
*U43
 10
660.0
 20
0.0
 30
0.0
  0
INSERT
  5
CDB4
330
CD5A
100
AcDbEntity
  8
エンボス
  6
ByBlock
 62
     0
370
    -2
380
     1
100
AcDbBlockReference
  2
*U43
 10
690.0
 20
0.0
 30
0.0
  0
INSERT
  5
CDB5
330
CD5A
100
AcDbEntity
  8
エンボス
  6
ByBlock
 62
     0
370
    -2
380
     1
100
AcDbBlockReference
  2
*U43
 10
720.0
 20
0.0
 30
0.0
  0
INSERT
  5
CDB6
330
CD5A
100
AcDbEntity
  8
エンボス
  6
ByBlock
 62
     0
370
    -2
380
     1
100
AcDbBlockReference
  2
*U43
 10
750.0
 20
0.0
 30
0.0
  0
INSERT
  5
CDB7
330
CD5A
100
AcDbEntity
  8
エンボス
  6
ByBlock
 62
     0
370
    -2
380
     1
100
AcDbBlockReference
  2
*U43
 10
780.0
 20
0.0
 30
0.0
  0
INSERT
  5
CDB8
330
CD5A
100
AcDbEntity
  8
エンボス
  6
ByBlock
 62
     0
370
    -2
380
     1
100
AcDbBlockReference
  2
*U43
 10
810.0
 20
0.0
 30
0.0
  0
INSERT
  5
CDB9
330
CD5A
100
AcDbEntity
  8
エンボス
  6
ByBlock
 62
     0
370
    -2
380
     1
100
AcDbBlockReference
  2
*U43
 10
840.0
 20
0.0
 30
0.0
  0
INSERT
  5
CDBA
330
CD5A
100
AcDbEntity
  8
エンボス
  6
ByBlock
 62
     0
370
    -2
380
     1
100
AcDbBlockReference
  2
*U43
 10
870.0
 20
0.0
 30
0.0
  0
INSERT
  5
CDBB
330
CD5A
100
AcDbEntity
  8
エンボス
  6
ByBlock
 62
     0
370
    -2
380
     1
100
AcDbBlockReference
  2
*U43
 10
900.0
 20
0.0
 30
0.0
  0
INSERT
  5
CDBC
330
CD5A
100
AcDbEntity
  8
エンボス
  6
ByBlock
 62
     0
370
    -2
380
     1
100
AcDbBlockReference
  2
*U43
 10
930.0
 20
0.0
 30
0.0
  0
ENDBLK
  5
CD5C
330
CD5A
100
AcDbEntity
  8
0
 48
3.0
100
AcDbBlockEnd
  0
BLOCK
  5
CDBF
330
CDBE
100
AcDbEntity
  8
0
 48
3.0
100
AcDbBlockBegin
  2
*U45
 70
     1
 10
0.0
 20
0.0
 30
0.0
  3
*U45
  1

  0
HATCH
  5
CDC5
330
CDBE
100
AcDbEntity
  8
エンボス
 48
3.0
100
AcDbHatch
 10
0.0
 20
0.0
 30
0.0
210
0.0
220
0.0
230
1.0
  2
ANSI31
 70
     0
 71
     0
 91
        6
 92
        7
 72
     0
 73
     1
 93
        4
 10
12.5
 20
141.9999999999995
 10
-12.5
 20
141.9999999999995
 10
-12.5
 20
103.0
 10
12.5
 20
103.0
 97
        0
 92
        7
 72
     0
 73
     1
 93
        4
 10
12.5
 20
96.99999999999988
 10
-12.5
 20
96.99999999999988
 10
-12.5
 20
53.0
 10
12.5
 20
53.0
 97
        0
 92
        7
 72
     0
 73
     1
 93
        4
 10
12.5
 20
46.99999999999988
 10
-12.5
 20
46.99999999999988
 10
-12.5
 20
3.0
 10
12.5
 20
3.0
 97
        0
 92
        7
 72
     0
 73
     1
 93
        4
 10
12.5
 20
-3.000000000000113
 10
-12.5
 20
-3.000000000000113
 10
-12.5
 20
-47.0
 10
12.5
 20
-47.0
 97
        0
 92
        7
 72
     0
 73
     1
 93
        4
 10
12.5
 20
-53.00000000000011
 10
-12.5
 20
-53.00000000000011
 10
-12.5
 20
-97.0
 10
12.5
 20
-97.0
 97
        0
 92
        7
 72
     0
 73
     1
 93
        4
 10
12.5
 20
-103.0000000000001
 10
-12.5
 20
-103.0000000000001
 10
-12.5
 20
-141.9999999999996
 10
12.5
 20
-141.9999999999996
 97
        0
 75
     1
 76
     1
 52
0.0
 41
1.0
 77
     0
 78
     1
 53
45.0
 43
-2883.510161836646
 44
-1344.239570028452
 45
-2.245064030267287
 46
2.245064030267287
 79
     0
 47
0.5528296032967936
 98
        6
 10
4.606289851108158
 20
120.4519039240426
 10
-2.419629293195498
 20
72.69577579137285
 10
0.3907398517403067
 20
20.72586748228639
 10
0.3907398517403067
 20
-28.43486055287258
 10
-3.824810147625669
 20
-76.19098868554238
 10
-5.229991002055669
 20
-122.5425315640118
1001
GradientColor1ACI
1070
     5
1001
GradientColor2ACI
1070
     2
1001
ACAD
1010
0.0
1020
0.0
1030
0.0
  0
ENDBLK
  5
CDC0
330
CDBE
100
AcDbEntity
  8
0
 48
3.0
100
AcDbBlockEnd
  0
BLOCK
  5
CDC2
330
CDC1
100
AcDbEntity
  8
0
 48
3.0
100
AcDbBlockBegin
  2
*U46
 70
     1
 10
0.0
 20
0.0
 30
0.0
  3
*U46
  1

  0
INSERT
  5
CDD0
330
CDC1
100
AcDbEntity
  8
エンボス
  6
ByBlock
 62
     0
370
    -2
380
     1
100
AcDbBlockReference
  2
*U45
 10
0.0
 20
0.0
 30
0.0
  0
INSERT
  5
CDD1
330
CDC1
100
AcDbEntity
  8
エンボス
  6
ByBlock
 62
     0
370
    -2
380
     1
100
AcDbBlockReference
  2
*U45
 10
60.0
 20
0.0
 30
0.0
  0
INSERT
  5
CDD2
330
CDC1
100
AcDbEntity
  8
エンボス
  6
ByBlock
 62
     0
370
    -2
380
     1
100
AcDbBlockReference
  2
*U45
 10
120.0
 20
0.0
 30
0.0
  0
INSERT
  5
CDD3
330
CDC1
100
AcDbEntity
  8
エンボス
  6
ByBlock
 62
     0
370
    -2
380
     1
100
AcDbBlockReference
  2
*U45
 10
180.0
 20
0.0
 30
0.0
  0
INSERT
  5
CDD4
330
CDC1
100
AcDbEntity
  8
エンボス
  6
ByBlock
 62
     0
370
    -2
380
     1
100
AcDbBlockReference
  2
*U45
 10
240.0
 20
0.0
 30
0.0
  0
INSERT
  5
CDD5
330
CDC1
100
AcDbEntity
  8
エンボス
  6
ByBlock
 62
     0
370
    -2
380
     1
100
AcDbBlockReference
  2
*U45
 10
300.0
 20
0.0
 30
0.0
  0
INSERT
  5
CDD6
330
CDC1
100
AcDbEntity
  8
エンボス
  6
ByBlock
 62
     0
370
    -2
380
     1
100
AcDbBlockReference
  2
*U45
 10
360.0
 20
0.0
 30
0.0
  0
INSERT
  5
CDD7
330
CDC1
100
AcDbEntity
  8
エンボス
  6
ByBlock
 62
     0
370
    -2
380
     1
100
AcDbBlockReference
  2
*U45
 10
420.0
 20
0.0
 30
0.0
  0
INSERT
  5
CDD8
330
CDC1
100
AcDbEntity
  8
エンボス
  6
ByBlock
 62
     0
370
    -2
380
     1
100
AcDbBlockReference
  2
*U45
 10
480.0
 20
0.0
 30
0.0
  0
INSERT
  5
CDD9
330
CDC1
100
AcDbEntity
  8
エンボス
  6
ByBlock
 62
     0
370
    -2
380
     1
100
AcDbBlockReference
  2
*U45
 10
540.0
 20
0.0
 30
0.0
  0
INSERT
  5
CDDA
330
CDC1
100
AcDbEntity
  8
エンボス
  6
ByBlock
 62
     0
370
    -2
380
     1
100
AcDbBlockReference
  2
*U45
 10
600.0
 20
0.0
 30
0.0
  0
INSERT
  5
CDDB
330
CDC1
100
AcDbEntity
  8
エンボス
  6
ByBlock
 62
     0
370
    -2
380
     1
100
AcDbBlockReference
  2
*U45
 10
660.0
 20
0.0
 30
0.0
  0
INSERT
  5
CDDC
330
CDC1
100
AcDbEntity
  8
エンボス
  6
ByBlock
 62
     0
370
    -2
380
     1
100
AcDbBlockReference
  2
*U45
 10
720.0
 20
0.0
 30
0.0
  0
INSERT
  5
CDDD
330
CDC1
100
AcDbEntity
  8
エンボス
  6
ByBlock
 62
     0
370
    -2
380
     1
100
AcDbBlockReference
  2
*U45
 10
780.0
 20
0.0
 30
0.0
  0
INSERT
  5
CDDE
330
CDC1
100
AcDbEntity
  8
エンボス
  6
ByBlock
 62
     0
370
    -2
380
     1
100
AcDbBlockReference
  2
*U45
 10
840.0
 20
0.0
 30
0.0
  0
INSERT
  5
CDDF
330
CDC1
100
AcDbEntity
  8
エンボス
  6
ByBlock
 62
     0
370
    -2
380
     1
100
AcDbBlockReference
  2
*U45
 10
900.0
 20
0.0
 30
0.0
  0
INSERT
  5
CDE0
330
CDC1
100
AcDbEntity
  8
エンボス
  6
ByBlock
 62
     0
370
    -2
380
     1
100
AcDbBlockReference
  2
*U45
 10
960.0
 20
0.0
 30
0.0
  0
ENDBLK
  5
CDC3
330
CDC1
100
AcDbEntity
  8
0
 48
3.0
100
AcDbBlockEnd
  0
ENDSEC
  0
SECTION
  2
ENTITIES
  0
LINE
  5
12
330
2
100
AcDbEntity
  8
外枠
 48
80.0
370
     9
100
AcDbLine
 10
0.0
 20
0.0
 30
0.0
 11
2789.511161023067
 21
0.0
 31
0.0
  0
LINE
  5
13
330
2
100
AcDbEntity
  8
外枠
 48
80.0
370
     9
100
AcDbLine
 10
2789.511161023071
 20
1973.26911249564
 30
0.0
 11
0.0
 21
1973.26911249564
 31
0.0
  0
LINE
  5
14
330
2
100
AcDbEntity
  8
外枠
 48
100.0
370
     9
100
AcDbLine
 10
10.0
 20
10.0
 30
0.0
 11
2780.119625023061
 21
10.0
 31
0.0
  0
LINE
  5
17
330
2
100
AcDbEntity
  8
外枠
  6
Continuous
 48
100.0
370
     9
100
AcDbLine
 10
9.999999999996363
 20
155.399272820803
 30
0.0
 11
2780.119625023061
 21
155.3992728207995
 31
0.0
  0
LINE
  5
18
330
2
100
AcDbEntity
  8
外枠
  6
Continuous
 48
100.0
370
     9
100
AcDbLine
 10
9.999999999996363
 20
160.0950408208045
 30
0.0
 11
2780.119625023061
 21
160.0950408207973
 31
0.0
  0
LINE
  5
19
330
2
100
AcDbEntity
  8
外枠
 48
100.0
370
     9
100
AcDbLine
 10
10.0
 20
1963.877576495633
 30
0.0
 11
2780.119625023053
 21
1963.877576495637
 31
0.0
  0
LINE
  5
1A
330
2
100
AcDbEntity
  8
外枠
 48
80.0
370
     9
100
AcDbLine
 10
0.0
 20
0.0
 30
0.0
 11
0.0
 21
1973.26911249564
 31
0.0
  0
LINE
  5
1B
330
2
100
AcDbEntity
  8
外枠
 48
100.0
370
     9
100
AcDbLine
 10
10.0
 20
1963.877576495633
 30
0.0
 11
10.0
 21
10.0
 31
0.0
  0
LINE
  5
1C
330
2
100
AcDbEntity
  8
外枠
  6
Continuous
 48
100.0
370
     9
100
AcDbLine
 10
10.0
 20
82.69963641040158
 30
0.0
 11
1153.530108552004
 21
82.69963641039794
 31
0.0
  0
MTEXT
  5
1E
330
2
100
AcDbEntity
  8
外枠
  6
Continuous
 48
100.0
370
     9
100
AcDbMText
 10
246.8574963386418
 20
64.81814764649607
 30
0.0
 40
35.0
 41
532.9183
 71
     1
 72
     5
  1
290\U+00D7995\U+00D732(実寸)
 73
     1
 44
1.0
1001
ACAD
1000
MTEXTBEGIN
1070
    73
1070
     1
1070
    44
1040
1.0
1070
    74
1070
     0
1000
MTEXTEND
  0
MTEXT
  5
1F
330
2
100
AcDbEntity
  8
外枠
  6
Continuous
 48
100.0
370
     9
100
AcDbMText
 10
71.19433134524481
 20
132.813515408402
 30
0.0
 40
30.0
 41
126.3036
 71
     1
 72
     5
  1
T-14
 73
     1
 44
1.0
1001
ACAD
1000
MTEXTBEGIN
1070
    73
1070
     1
1070
    44
1040
1.0
1070
    74
1070
     0
1000
MTEXTEND
  0
MTEXT
  5
20
330
2
100
AcDbEntity
  8
外枠
  6
Continuous
 48
100.0
370
     9
100
AcDbMText
 10
75.59194746657249
 20
59.95966632915224
 30
0.0
 40
35.0
 41
88.86979999999999
 71
     1
 72
     5
  1
CNUP
 73
     1
 44
1.0
1001
ACAD
1000
MTEXTBEGIN
1070
    73
1070
     1
1070
    44
1040
1.0
1070
    74
1070
     0
1000
MTEXTEND
  0
LINE
  5
21
330
2
100
AcDbEntity
  8
外枠
 48
100.0
370
     9
100
AcDbLine
 10
45.0
 20
155.399272820803
 30
0.0
 11
45.0
 21
10.0
 31
0.0
  0
MTEXT
  5
22
330
2
100
AcDbEntity
  8
外枠
  6
Continuous
 48
100.0
370
     9
100
AcDbMText
 10
15.05670849094895
 20
75.82038473524153
 30
0.0
 40
20.0
 41
23.52947333656417
 71
     1
 72
     5
  1
品\P番
 73
     1
 44
1.0
1001
ACAD
1000
MTEXTBEGIN
1070
    73
1070
     1
1070
    44
1040
1.0
1070
    74
1070
     0
1000
MTEXTEND
  0
MTEXT
  5
23
330
2
100
AcDbEntity
  8
外枠
  6
Continuous
 48
100.0
370
     9
100
AcDbMText
 10
14.92010060012399
 20
149.3317229429121
 30
0.0
 40
20.0
 41
30.07989939987533
 71
     1
 72
     5
  1
荷\P重
 73
     1
 44
1.0
1001
ACAD
1000
MTEXTBEGIN
1070
    73
1070
     1
1070
    44
1040
1.0
1070
    74
1070
     0
1000
MTEXTEND
  0
LINE
  5
24
330
2
100
AcDbEntity
  8
外枠
 48
100.0
370
     9
100
AcDbLine
 10
179.1040495562846
 20
155.399272820803
 30
0.0
 11
179.1040495562846
 21
10.0
 31
0.0
  0
MTEXT
  5
25
330
2
100
AcDbEntity
  8
外枠
  6
Continuous
 48
100.0
370
     9
100
AcDbMText
 10
287.9691738109468
 20
133.8572910967996
 30
0.0
 40
30.0
 41
255.4034069259499
 71
     1
 72
     5
  1
300用
 73
     1
 44
1.0
1001
ACAD
1000
MTEXTBEGIN
1070
    73
1070
     1
1070
    44
1040
1.0
1070
    74
1070
     0
1000
MTEXTEND
  0
MTEXT
  5
26
330
2
100
AcDbEntity
  8
外枠
  6
Continuous
 48
100.0
370
     9
100
AcDbMText
 10
184.4346535744698
 20
149.3074501239389
 30
0.0
 40
20.0
 41
29.6694
 71
     1
 72
     5
  1
溝幅
 73
     1
 44
1.0
1001
ACAD
1000
MTEXTBEGIN
1070
    73
1070
     1
1070
    44
1040
1.0
1070
    74
1070
     0
1000
MTEXTEND
  0
LINE
  5
27
330
2
100
AcDbEntity
  8
外枠
 48
100.0
370
     9
100
AcDbLine
 10
214.1040495562847
 20
155.399272820803
 30
0.0
 11
214.1040495562847
 21
82.69963641040158
 31
0.0
  0
MTEXT
  5
28
330
2
100
AcDbEntity
  8
外枠
  6
Continuous
 48
100.0
370
     9
100
AcDbMText
 10
477.8955451146976
 20
149.3074501239389
 30
0.0
 40
20.0
 41
29.6694
 71
     1
 72
     5
  1
品名
 73
     1
 44
1.0
1001
ACAD
1000
MTEXTBEGIN
1070
    73
1070
     1
1070
    44
1040
1.0
1070
    74
1070
     0
1000
MTEXTEND
  0
LINE
  5
29
330
2
100
AcDbEntity
  8
外枠
 48
100.0
370
     9
100
AcDbLine
 10
472.5649410965123
 20
155.399272820803
 30
0.0
 11
472.5649410965123
 21
82.69963641040158
 31
0.0
  0
LINE
  5
2A
330
2
100
AcDbEntity
  8
外枠
 48
100.0
370
     9
100
AcDbLine
 10
507.5649410965125
 20
155.399272820803
 30
0.0
 11
507.5649410965125
 21
82.69963641040158
 31
0.0
  0
MTEXT
  5
2B
330
2
100
AcDbEntity
  8
外枠
  6
Continuous
 48
100.0
370
     9
100
AcDbMText
 10
728.477887653953
 20
76.92551173516403
 30
0.0
 40
20.0
 41
664.6118999999998
 71
     1
 72
     5
  1
摘\P要
 73
     1
 44
1.0
1001
ACAD
1000
MTEXTBEGIN
1070
    73
1070
     1
1070
    44
1040
1.0
1070
    74
1070
     0
1000
MTEXTEND
  0
LINE
  5
2C
330
2
100
AcDbEntity
  8
外枠
 48
100.0
370
     9
100
AcDbLine
 10
723.828237311587
 20
82.6996364103943
 30
0.0
 11
723.828237311587
 21
9.999999999992724
 31
0.0
  0
LINE
  5
2F
330
2
100
AcDbEntity
  8
外枠
 48
100.0
370
     9
100
AcDbLine
 10
758.828237311587
 20
82.6996364103943
 30
0.0
 11
758.828237311587
 21
9.999999999992724
 31
0.0
  0
LINE
  5
31
330
2
100
AcDbEntity
  8
外枠
 48
100.0
370
     9
100
AcDbLine
 10
974.9513069700951
 20
82.6996364103943
 30
0.0
 11
974.9513069700951
 21
9.999999999992724
 31
0.0
  0
MTEXT
  5
32
330
2
100
AcDbEntity
  8
外枠
  6
Continuous
 48
100.0
370
     9
100
AcDbMText
 10
979.7329598959766
 20
74.84825461820583
 30
0.0
 40
20.0
 41
31.38947761565365
 71
     1
 72
     5
  1
材\P質
 73
     1
 44
1.0
1001
ACAD
1000
MTEXTBEGIN
1070
    73
1070
     1
1070
    44
1040
1.0
1070
    74
1070
     0
1000
MTEXTEND
  0
LINE
  5
33
330
2
100
AcDbEntity
  8
外枠
 48
100.0
370
     9
100
AcDbLine
 10
1009.951306970095
 20
82.6996364103943
 30
0.0
 11
1009.951306970095
 21
9.999999999992724
 31
0.0
  0
LINE
  5
38
330
2
100
AcDbEntity
  8
外枠
 48
80.0
370
     9
100
AcDbLine
 10
2789.511161023067
 20
0.0
 30
0.0
 11
2789.511161023071
 21
1973.26911249564
 31
0.0
  0
LINE
  5
39
330
2
100
AcDbEntity
  8
外枠
 48
100.0
370
     9
100
AcDbLine
 10
2780.119625023053
 20
1963.877576495637
 30
0.0
 11
2780.119625023061
 21
10.0
 31
0.0
  0
LINE
  5
3B
330
2
100
AcDbEntity
  8
外枠
 48
3.0
100
AcDbLine
 10
1607.072254912545
 20
61.67068719952067
 30
0.0
 11
2262.173600934632
 21
61.67068719952067
 31
0.0
  0
MTEXT
  5
3C
330
2
100
AcDbEntity
  8
外枠
  6
Continuous
 48
100.0
370
     9
100
AcDbMText
 10
1683.622173868318
 20
50.71504764095289
 30
0.0
 40
30.00024
 41
539.4827578564582
 71
     1
 72
     5
  1
T A K A R A   G R A T I N G
 73
     1
 44
1.0
1001
ACAD
1000
MTEXTBEGIN
1070
    73
1070
     1
1070
    44
1040
1.0
1070
    74
1070
     0
1000
MTEXTEND
  0
MTEXT
  5
3D
330
2
100
AcDbEntity
  8
外枠
  6
Continuous
 48
100.0
370
     9
100
AcDbMText
 10
1728.02061463669
 20
127.1672938476838
 30
0.0
 40
30.0
 41
282.8297
 71
     1
 72
     5
  1
株 式 会 社
 73
     1
 44
1.0
1001
ACAD
1000
MTEXTBEGIN
1070
    73
1070
     1
1070
    44
1040
1.0
1070
    74
1070
     0
1000
MTEXTEND
  0
LINE
  5
3E
330
2
100
AcDbEntity
  8
外枠
  6
Continuous
 48
100.0
370
     9
100
AcDbLine
 10
1508.680137877982
 20
155.3992728208068
 30
0.0
 11
1508.680137877982
 21
10.00000000000364
 31
0.0
  0
LINE
  5
3F
330
2
100
AcDbEntity
  8
外枠
  6
Continuous
 48
100.0
370
     9
100
AcDbLine
 10
1593.95141853916
 20
155.3992728207995
 30
0.0
 11
1593.95141853916
 21
9.999999999996363
 31
0.0
  0
LINE
  5
40
330
2
100
AcDbEntity
  8
外枠
  6
Continuous
 48
100.0
370
     9
100
AcDbLine
 10
1616.777813337499
 20
106.634063069062
 30
0.0
 11
1612.463999974505
 21
110.08511375945
 31
0.0
  0
LINE
  5
41
330
2
100
AcDbEntity
  8
外枠
  6
Continuous
 48
100.0
370
     9
100
AcDbLine
 10
1616.777813337499
 20
106.634063069062
 30
0.0
 11
1612.463999974505
 21
103.183012378663
 31
0.0
  0
LINE
  5
42
330
2
100
AcDbEntity
  8
外枠
  6
Continuous
 48
100.0
370
     9
100
AcDbLine
 10
1616.777813337505
 20
113.5361644498489
 30
0.0
 11
1612.463999974505
 21
110.08511375945
 31
0.0
  0
LINE
  5
43
330
2
100
AcDbEntity
  8
外枠
  6
Continuous
 48
100.0
370
     9
100
AcDbLine
 10
1616.777813337499
 20
99.73196168827506
 30
0.0
 11
1612.463999974505
 21
103.183012378663
 31
0.0
  0
LINE
  5
46
330
2
100
AcDbEntity
  8
外枠
  6
Continuous
 48
100.0
370
     9
100
AcDbLine
 10
1649.122643507042
 20
139.4120285854742
 30
0.0
 11
1653.436456870031
 21
135.9609778950862
 31
0.0
  0
LINE
  5
47
330
2
100
AcDbEntity
  8
外枠
  6
Continuous
 48
100.0
370
     9
100
AcDbLine
 10
1666.377896959009
 20
139.4120285854742
 30
0.0
 11
1662.06408359602
 21
135.9609778950862
 31
0.0
  0
MTEXT
  5
48
330
2
100
AcDbEntity
  8
外枠
  6
Continuous
 48
100.0
370
     9
100
AcDbMText
 10
1642.840555134189
 20
120.8184913847756
 30
0.0
 40
23.95393639053264
 41
23.85059431815661
 71
     1
 72
     5
  1
{\fＭＳ ゴシック|b0|i0|c128|p49;宝}
 73
     1
 44
1.0
1001
ACAD
1000
MTEXTBEGIN
1070
    73
1070
     1
1070
    44
1040
1.0
1070
    74
1070
     0
1000
MTEXTEND
  0
LINE
  5
49
330
2
100
AcDbEntity
  8
外枠
  6
Continuous
 48
100.0
370
     9
100
AcDbLine
 10
1662.06408359602
 20
135.9609778950862
 30
0.0
 11
1694.408913765557
 21
110.08511375945
 31
0.0
  0
LINE
  5
4A
330
2
100
AcDbEntity
  8
外枠
  6
Continuous
 48
100.0
370
     9
100
AcDbLine
 10
1657.750270233026
 20
132.5099272046927
 30
0.0
 11
1690.095100402563
 21
106.634063069062
 31
0.0
  0
LINE
  5
4B
330
2
100
AcDbEntity
  8
外枠
  6
Continuous
 48
100.0
370
     9
100
AcDbLine
 10
1690.095100402563
 20
106.634063069062
 30
0.0
 11
1657.750270233026
 21
80.75819893343123
 31
0.0
  0
LINE
  5
4C
330
2
100
AcDbEntity
  8
外枠
  6
Continuous
 48
100.0
370
     9
100
AcDbLine
 10
1694.408913765557
 20
103.183012378663
 30
0.0
 11
1662.06408359602
 21
77.30714824303777
 31
0.0
  0
LINE
  5
4D
330
2
100
AcDbEntity
  8
外枠
  6
Continuous
 48
100.0
370
     9
100
AcDbLine
 10
1657.750270233026
 20
80.75819893342577
 30
0.0
 11
1625.405440063488
 21
106.634063069062
 31
0.0
  0
LINE
  5
4E
330
2
100
AcDbEntity
  8
外枠
  6
Continuous
 48
100.0
370
     9
100
AcDbLine
 10
1653.436456870031
 20
77.30714824303777
 30
0.0
 11
1621.0916267005
 21
103.183012378663
 31
0.0
  0
LINE
  5
4F
330
2
100
AcDbEntity
  8
外枠
  6
Continuous
 48
100.0
370
     9
100
AcDbLine
 10
1621.0916267005
 20
103.183012378663
 30
0.0
 11
1616.777813337505
 21
99.73196168827506
 31
0.0
  0
LINE
  5
50
330
2
100
AcDbEntity
  8
外枠
  6
Continuous
 48
100.0
370
     9
100
AcDbLine
 10
1653.436456870031
 20
77.30714824303777
 30
0.0
 11
1649.122643507042
 21
73.85609755263884
 31
0.0
  0
LINE
  5
51
330
2
100
AcDbEntity
  8
外枠
  6
Continuous
 48
100.0
370
     9
100
AcDbLine
 10
1653.436456870031
 20
70.40504686224541
 30
0.0
 11
1649.122643507042
 21
73.85609755263884
 31
0.0
  0
LINE
  5
52
330
2
100
AcDbEntity
  8
外枠
  6
Continuous
 48
100.0
370
     9
100
AcDbLine
 10
1657.750270233026
 20
73.85609755263884
 30
0.0
 11
1653.436456870031
 21
70.40504686224541
 31
0.0
  0
LINE
  5
53
330
2
100
AcDbEntity
  8
外枠
  6
Continuous
 48
100.0
370
     9
100
AcDbLine
 10
1666.377896959009
 20
73.85609755263884
 30
0.0
 11
1662.06408359602
 21
70.40504686224541
 31
0.0
  0
LINE
  5
54
330
2
100
AcDbEntity
  8
外枠
  6
Continuous
 48
100.0
370
     9
100
AcDbLine
 10
1662.06408359602
 20
70.40504686224541
 30
0.0
 11
1657.750270233026
 21
73.85609755263884
 31
0.0
  0
LINE
  5
55
330
2
100
AcDbEntity
  8
外枠
  6
Continuous
 48
100.0
370
     9
100
AcDbLine
 10
1666.377896959009
 20
73.85609755263884
 30
0.0
 11
1662.06408359602
 21
77.30714824303777
 31
0.0
  0
LINE
  5
56
330
2
100
AcDbEntity
  8
外枠
  6
Continuous
 48
100.0
370
     9
100
AcDbLine
 10
1657.750270233026
 20
132.5099272046927
 30
0.0
 11
1625.405440063483
 21
106.634063069062
 31
0.0
  0
LINE
  5
57
330
2
100
AcDbEntity
  8
外枠
  6
Continuous
 48
100.0
370
     9
100
AcDbLine
 10
1653.436456870031
 20
135.9609778950862
 30
0.0
 11
1621.0916267005
 21
110.08511375945
 31
0.0
  0
LINE
  5
58
330
2
100
AcDbEntity
  8
外枠
  6
Continuous
 48
100.0
370
     9
100
AcDbLine
 10
1621.0916267005
 20
110.08511375945
 30
0.0
 11
1616.777813337505
 21
113.5361644498489
 31
0.0
  0
LINE
  5
59
330
2
100
AcDbEntity
  8
外枠
  6
Continuous
 48
100.0
370
     9
100
AcDbLine
 10
1694.408913765557
 20
103.183012378663
 30
0.0
 11
1698.722727128541
 21
99.73196168827506
 31
0.0
  0
LINE
  5
5A
330
2
100
AcDbEntity
  8
外枠
  6
Continuous
 48
100.0
370
     9
100
AcDbLine
 10
1703.036540491541
 20
103.183012378663
 30
0.0
 11
1698.722727128541
 21
99.73196168827506
 31
0.0
  0
LINE
  5
5B
330
2
100
AcDbEntity
  8
外枠
  6
Continuous
 48
100.0
370
     9
100
AcDbLine
 10
1698.722727128541
 20
113.5361644498489
 30
0.0
 11
1694.408913765557
 21
110.08511375945
 31
0.0
  0
LINE
  5
5C
330
2
100
AcDbEntity
  8
外枠
  6
Continuous
 48
100.0
370
     9
100
AcDbLine
 10
1698.722727128541
 20
106.634063069062
 30
0.0
 11
1703.036540491541
 21
103.183012378663
 31
0.0
  0
LINE
  5
5D
330
2
100
AcDbEntity
  8
外枠
  6
Continuous
 48
100.0
370
     9
100
AcDbLine
 10
1698.722727128541
 20
113.5361644498489
 30
0.0
 11
1703.036540491541
 21
110.08511375945
 31
0.0
  0
LINE
  5
5E
330
2
100
AcDbEntity
  8
外枠
  6
Continuous
 48
100.0
370
     9
100
AcDbLine
 10
1703.036540491541
 20
110.08511375945
 30
0.0
 11
1698.722727128541
 21
106.634063069062
 31
0.0
  0
LINE
  5
5F
330
2
100
AcDbEntity
  8
外枠
  6
Continuous
 48
100.0
370
     9
100
AcDbLine
 10
1653.436456870031
 20
142.8630792758676
 30
0.0
 11
1649.122643507042
 21
139.4120285854742
 31
0.0
  0
LINE
  5
60
330
2
100
AcDbEntity
  8
外枠
  6
Continuous
 48
100.0
370
     9
100
AcDbLine
 10
1662.06408359602
 20
142.8630792758676
 30
0.0
 11
1666.377896959009
 21
139.4120285854742
 31
0.0
  0
LINE
  5
61
330
2
100
AcDbEntity
  8
外枠
  6
Continuous
 48
100.0
370
     9
100
AcDbLine
 10
1653.436456870031
 20
142.8630792758676
 30
0.0
 11
1657.750270233026
 21
139.4120285854742
 31
0.0
  0
LINE
  5
62
330
2
100
AcDbEntity
  8
外枠
  6
Continuous
 48
100.0
370
     9
100
AcDbLine
 10
1662.06408359602
 20
142.8630792758676
 30
0.0
 11
1657.750270233026
 21
139.4120285854742
 31
0.0
  0
MTEXT
  5
63
330
2
100
AcDbEntity
  8
外枠
  6
Continuous
 48
100.0
370
     9
100
AcDbMText
 10
1982.246612759803
 20
141.5312822365363
 30
0.0
 40
50.0
 41
269.1378
 71
     1
 72
     5
  1
宝 機 材
 73
     1
 44
1.0
1001
ACAD
1000
MTEXTBEGIN
1070
    73
1070
     1
1070
    44
1040
1.0
1070
    74
1070
     0
1000
MTEXTEND
  0
LINE
  5
64
330
2
100
AcDbEntity
  8
外枠
  6
Continuous
 48
100.0
370
     9
100
AcDbLine
 10
2694.775480668144
 20
78.59726492113622
 30
0.0
 11
2729.639779322774
 21
43.732966266507
 31
0.0
  0
LINE
  5
65
330
2
100
AcDbEntity
  8
外枠
  6
Continuous
 48
100.0
370
     9
100
AcDbLine
 10
2729.639779322774
 20
113.4615635757691
 30
0.0
 11
2694.775480668144
 21
78.59726492113622
 31
0.0
  0
LINE
  5
67
330
2
100
AcDbEntity
  8
外枠
  6
Continuous
 48
100.0
370
     9
100
AcDbLine
 10
2271.730765417811
 20
155.3992728207995
 30
0.0
 11
2271.730765417811
 21
10.0
 31
0.0
  0
LINE
  5
68
330
2
100
AcDbEntity
  8
外枠
  6
Continuous
 48
100.0
370
     9
100
AcDbLine
 10
2387.385592047314
 20
155.3992728207995
 30
0.0
 11
2387.385592047314
 21
9.999999999996363
 31
0.0
  0
MTEXT
  5
69
330
2
100
AcDbEntity
  8
外枠
  6
Continuous
 48
100.0
370
     9
100
AcDbMText
 10
2518.897970034654
 20
80.52451510381798
 30
0.0
 40
16.435188
 41
274.138099993296
 71
     1
 72
     5
  1
縮尺（A4用紙)
 73
     1
 44
1.0
1001
ACAD
1000
MTEXTBEGIN
1070
    73
1070
     1
1070
    44
1040
1.0
1070
    74
1070
     0
1000
MTEXTEND
  0
LINE
  5
6A
330
2
100
AcDbEntity
  8
外枠
  6
Continuous
 48
100.0
370
     9
100
AcDbLine
 10
2503.04041867681
 20
155.3992728207995
 30
0.0
 11
2503.04041867681
 21
9.999999999996363
 31
0.0
  0
LINE
  5
6B
330
2
100
AcDbEntity
  8
外枠
  6
Continuous
 48
100.0
370
     9
100
AcDbLine
 10
2676.662359028593
 20
155.3992728207995
 30
0.0
 11
2676.662359028593
 21
10.0
 31
0.0
  0
MTEXT
  5
6C
330
2
100
AcDbEntity
  8
外枠
  6
Continuous
 48
100.0
370
     9
100
AcDbMText
 10
2557.587330290393
 20
42.2416190518379
 30
0.0
 40
23.47884
 41
274.138099993296
 71
     1
 72
     5
  1
1：10
 73
     1
 44
1.0
1001
ACAD
1000
MTEXTBEGIN
1070
    73
1070
     1
1070
    44
1040
1.0
1070
    74
1070
     0
1000
MTEXTEND
  0
MTEXT
  5
6D
330
2
100
AcDbEntity
  8
外枠
  6
Continuous
 48
100.0
370
     9
100
AcDbMText
 10
2280.290404386422
 20
149.5129012429788
 30
0.0
 40
18.783072
 41
274.13809060176
 71
     1
 72
     5
  1
Check
 73
     1
 44
1.0
1001
ACAD
1000
MTEXTBEGIN
1070
    73
1070
     1
1070
    44
1040
1.0
1070
    74
1070
     0
1000
MTEXTEND
  0
MTEXT
  5
6E
330
2
100
AcDbEntity
  8
外枠
  6
Continuous
 48
100.0
370
     9
100
AcDbMText
 10
2398.03460165154
 20
149.5129012429788
 30
0.0
 40
18.783072
 41
274.13809060176
 71
     1
 72
     5
  1
Draw
 73
     1
 44
1.0
1001
ACAD
1000
MTEXTBEGIN
1070
    73
1070
     1
1070
    44
1040
1.0
1070
    74
1070
     0
1000
MTEXTEND
  0
LINE
  5
70
330
2
100
AcDbEntity
  8
外枠
  6
Continuous
 48
100.0
370
     9
100
AcDbLine
 10
2676.662359028593
 20
85.04752041039683
 30
0.0
 11
2503.04041867681
 21
85.04752041039683
 31
0.0
  0
MTEXT
  5
71
330
2
100
AcDbEntity
  8
外枠
  6
Continuous
 48
100.0
370
     9
100
AcDbMText
 10
2518.897970034654
 20
153.7304166203976
 30
0.0
 40
16.435188
 41
274.138099993296
 71
     1
 72
     5
  1
図面作成日
 73
     1
 44
1.0
1001
ACAD
1000
MTEXTBEGIN
1070
    73
1070
     1
1070
    44
1040
1.0
1070
    74
1070
     0
1000
MTEXTEND
  0
LINE
  5
73
330
2
100
AcDbEntity
  8
外枠
  6
Continuous
 48
100.0
370
     9
100
AcDbLine
 10
2729.639779322774
 20
43.732966266507
 30
0.0
 11
2764.504077977397
 21
78.59726492113622
 31
0.0
  0
LINE
  5
74
330
2
100
AcDbEntity
  8
外枠
  6
Continuous
 48
100.0
370
     9
100
AcDbLine
 10
2764.504077977397
 20
78.59726492113622
 30
0.0
 11
2729.639779322774
 21
113.4615635757691
 31
0.0
  0
MTEXT
  5
1701
330
2
100
AcDbEntity
  8
外枠
  6
Continuous
 48
100.0
370
     9
100
AcDbMText
 10
1561.189038883473
 20
112.2896417371344
 30
0.0
 40
20.0
 41
1015.1375
 71
     1
 72
     5
  1
kg
 73
     1
 44
1.0
1001
ACAD
1000
MTEXTBEGIN
1070
    73
1070
     1
1070
    44
1040
1.0
1070
    74
1070
     0
1000
MTEXTEND
  0
MTEXT
  5
1702
330
2
100
AcDbEntity
  8
外枠
  6
Continuous
 48
100.0
370
     9
100
AcDbMText
 10
1517.440408901266
 20
145.1469619851873
 30
0.0
 40
20.0
 41
1015.1375
 71
     1
 72
     5
  1
22.0
 73
     1
 44
1.0
1001
ACAD
1000
MTEXTBEGIN
1070
    73
1070
     1
1070
    44
1040
1.0
1070
    74
1070
     0
1000
MTEXTEND
  0
MTEXT
  5
1DF7
330
2
100
AcDbEntity
  8
外枠
  6
Continuous
 48
100.0
370
     9
100
AcDbMText
 10
1022.193186254242
 20
77.61017986570005
 30
0.0
 40
18.0
 41
122.0406
 71
     1
 72
     5
  1
【主部材】
 73
     1
 44
1.0
1001
ACAD
1000
MTEXTBEGIN
1070
    73
1070
     1
1070
    44
1040
1.0
1070
    74
1070
     0
1000
MTEXTEND
  0
MTEXT
  5
1DF9
330
2
100
AcDbEntity
  8
外枠
  6
Continuous
 48
100.0
370
     9
100
AcDbMText
 10
1202.677957061338
 20
120.1377642323778
 30
0.0
 40
25.0
 41
1015.1375
 71
     1
 72
     5
  1
溶融亜鉛めっき仕上
 73
     1
 44
1.0
1001
ACAD
1000
MTEXTBEGIN
1070
    73
1070
     1
1070
    44
1040
1.0
1070
    74
1070
     0
1000
MTEXTEND
  0
MTEXT
  5
1DFA
330
2
100
AcDbEntity
  8
外枠
  6
Continuous
 48
100.0
370
     9
100
AcDbMText
 10
1199.761738767627
 20
151.0819879350613
 30
0.0
 40
18.0
 41
301.8661
 71
     1
 72
     5
  1
【グレーチング】JIS　H8641
 73
     1
 44
1.0
1001
ACAD
1000
MTEXTBEGIN
1070
    73
1070
     1
1070
    44
1040
1.0
1070
    74
1070
     0
1000
MTEXTEND
  0
MTEXT
  5
1DFB
330
2
100
AcDbEntity
  8
外枠
  6
Continuous
 48
100.0
370
     9
100
AcDbMText
 10
1159.385398923399
 20
148.6111115828462
 30
0.0
 40
20.0
 41
1015.1375
 71
     1
 72
     5
  1
表\P面\P処\P理
 73
     1
 44
1.0
1001
ACAD
1000
MTEXTBEGIN
1070
    73
1070
     1
1070
    44
1040
1.0
1070
    74
1070
     0
1000
MTEXTEND
  0
LINE
  5
1DFC
330
2
100
AcDbEntity
  8
外枠
  6
Continuous
 48
100.0
370
     9
100
AcDbLine
 10
1188.531791166651
 20
155.3992728207959
 30
0.0
 11
1188.531791166651
 21
9.999999999992724
 31
0.0
  0
LINE
  5
1DFD
330
2
100
AcDbEntity
  8
外枠
  6
Continuous
 48
100.0
370
     9
100
AcDbLine
 10
1153.531306970095
 20
155.3992728207959
 30
0.0
 11
1153.531306970095
 21
9.999999999992724
 31
0.0
  0
LINE
  5
1DFE
330
2
100
AcDbEntity
  8
外枠
 48
3.0
100
AcDbLine
 10
1188.531791166651
 20
82.6996364103943
 30
0.0
 11
1593.951336296073
 21
82.6996364103943
 31
0.0
  0
MTEXT
  5
26E4
330
2
100
AcDbEntity
  8
外枠
  6
Continuous
 48
100.0
370
     9
100
AcDbMText
 10
1038.975343934131
 20
43.78169995529471
 30
0.0
 40
25.0
 41
122.0406
 71
     1
 72
     5
  1
SS540
 73
     1
 44
1.0
1001
ACAD
1000
MTEXTBEGIN
1070
    73
1070
     1
1070
    44
1040
1.0
1070
    74
1070
     0
1000
MTEXTEND
  0
INSERT
  5
38DF
330
2
100
AcDbEntity
  8
本体
 48
3.0
100
AcDbBlockReference
  2
HGIB詳細(ﾊｲﾃﾝ)
 10
2760.11962502306
 20
180.0950408207973
 30
0.0
  0
INSERT
  5
4161
330
2
100
AcDbEntity
  8
本体
 48
3.0
100
AcDbBlockReference
  2
清水
 10
2387.385592047314
 20
155.3992728207995
 30
0.0
  0
MTEXT
  5
5BD1
330
2
100
AcDbEntity
  8
外枠
  6
Continuous
 48
100.0
370
     9
100
AcDbMText
 10
512.9859535967352
 20
136.1535564242149
 30
0.0
 40
25.0
 41
739.2476434056916
 71
     1
 72
     5
  1
LSハイテン ﾋﾞｭｰﾃｨﾌﾙ U字溝用グレーチング
 73
     1
 44
1.0
1001
ACAD
1000
MTEXTBEGIN
1070
    73
1070
     1
1070
    44
1040
1.0
1070
    74
1070
     0
1000
MTEXTEND
  0
ELLIPSE
  5
5BDE
330
2
100
AcDbEntity
  8
外枠
  6
Continuous
100
AcDbEllipse
 10
2333.411452281369
 20
70.80064248893541
 30
0.0
 11
0.0
 21
-47.85944421494259
 31
0.0
210
0.0
220
0.0
230
1.0
 40
0.7999999999999857
 41
0.0
 42
6.283185307179585
  0
MTEXT
  5
5BDF
330
2
100
AcDbEntity
  8
外枠
  6
Continuous
100
AcDbMText
 10
2313.432380149015
 20
109.7804165221496
 30
0.0
 40
28.17460800000001
 41
43.8527
 71
     1
 72
     5
  1
{\fHGSeikaishotaiPRO|b0|i0|c128|p65;鎌}
 73
     1
 44
1.0
1001
ACAD
1000
MTEXTBEGIN
1070
    73
1070
     1
1070
    44
1040
1.0
1070
    74
1070
     0
1000
MTEXTEND
  0
MTEXT
  5
5BE0
330
2
100
AcDbEntity
  8
外枠
  6
Continuous
 48
100.0
370
     9
100
AcDbMText
 10
2509.985545378613
 20
121.2206105686568
 30
0.0
 40
23.47884
 41
274.1381
 71
     1
 72
     5
  1
'14・09・01
 73
     1
 44
1.0
1001
ACAD
1000
MTEXTBEGIN
1070
    73
1070
     1
1070
    44
1040
1.0
1070
    74
1070
     0
1000
MTEXTEND
  0
MTEXT
  5
5BE1
330
2
100
AcDbEntity
  8
外枠
  6
Continuous
100
AcDbMText
 10
2313.432380149015
 20
63.11920106770867
 30
0.0
 40
28.17460800000001
 41
43.8527
 71
     1
 72
     5
  1
{\fHGSeikaishotaiPRO|b0|i0|c128|p65;下}
 73
     1
 44
1.0
1001
ACAD
1000
MTEXTBEGIN
1070
    73
1070
     1
1070
    44
1040
1.0
1070
    74
1070
     0
1000
MTEXTEND
  0
DIMENSION
  5
A81B
330
2
100
AcDbEntity
  8
寸法線
  6
Continuous
100
AcDbDimension
  2
*D31
 10
1394.999999999999
 20
1572.161198593099
 30
0.0
 11
897.499999999999
 21
1592.161198593099
 31
0.0
 70
    32
 71
     5
 42
995.0
  3
ISO-25
100
AcDbAlignedDimension
 13
399.9999999999992
 23
1411.265796905608
 33
0.0
 14
1394.999999999999
 24
1411.265796905602
 34
0.0
100
AcDbRotatedDimension
  0
LINE
  5
A81C
330
2
100
AcDbEntity
  8
嵩上平面
100
AcDbLine
 10
399.9999999999992
 20
1412.165796905608
 30
0.0
 11
1394.999999999999
 21
1412.165796905608
 31
0.0
  0
LINE
  5
A81D
330
2
100
AcDbEntity
  8
嵩上平面
100
AcDbLine
 10
399.9999999999992
 20
1372.165796905608
 30
0.0
 11
1394.999999999999
 21
1372.165796905608
 31
0.0
  0
LEADER
  5
A829
330
2
100
AcDbEntity
  8
寸法線
  6
Continuous
100
AcDbLeader
  3
ISO-25
 73
     0
 74
     0
 75
     1
 40
30.0
 41
229.9492385786802
 76
     3
 10
432.9895732786772
 20
1407.256890239962
 30
0.0
 10
481.6112439092483
 20
1492.165796905608
 30
0.0
 10
496.6112439092483
 20
1492.165796905608
 30
0.0
340
A82A
1001
ACAD
1000
DSTYLE
1002
{
1070
     5
1000
OPEN30
1070
    77
1070
     1
1070
   147
1040
0.5
1070
   342
1005
E3
1002
}
  0
MTEXT
  5
A82A
102
{ACAD_REACTORS
330
A829
102
}
330
2
100
AcDbEntity
  8
寸法線
  6
Continuous
100
AcDbMText
 10
501.6112439092485
 20
1497.165796905608
 30
0.0
 40
30.0
 41
0.0
 71
     7
 72
     1
  1
HGIB5\U+00D73\U+00D732
 73
     1
 44
1.0
1001
ACAD
1000
MTEXTBEGIN
1070
    73
1070
     1
1070
    44
1040
1.0
1070
    74
1070
     0
1000
MTEXTEND
  0
LINE
  5
A83E
330
2
100
AcDbEntity
  8
嵩上平面
100
AcDbLine
 10
399.9999999999992
 20
1412.165796905608
 30
0.0
 11
399.9999999999992
 21
1372.165796905608
 31
0.0
  0
MTEXT
  5
A89E
102
{ACAD_REACTORS
330
A8A2
102
}
330
2
100
AcDbEntity
  8
寸法線
  6
Continuous
100
AcDbMText
 10
883.2106781186539
 20
1497.165796905608
 30
0.0
 40
30.0
 41
0.0
 71
     7
 72
     1
  1
TB
 73
     1
 44
1.0
1001
ACAD
1000
MTEXTBEGIN
1070
    73
1070
     1
1070
    44
1040
1.0
1070
    74
1070
     0
1000
MTEXTEND
  0
LEADER
  5
A8A2
330
2
100
AcDbEntity
  8
寸法線
  6
Continuous
100
AcDbLeader
  3
ISO-25
 73
     0
 74
     0
 75
     1
 40
30.0
 41
35.78680203045685
 76
     3
 10
815.5808793972447
 20
1412.165796905607
 30
0.0
 10
863.2106781186541
 20
1492.165796905608
 30
0.0
 10
878.210678118654
 20
1492.165796905608
 30
0.0
340
A89E
1001
ACAD
1000
DSTYLE
1002
{
1070
     5
1000
OPEN30
1070
    77
1070
     1
1070
   147
1040
0.5
1070
   342
1005
E3
1002
}
  0
DIMENSION
  5
AAEC
330
2
100
AcDbEntity
  8
寸法線
  6
Continuous
100
AcDbDimension
  2
*D32
 10
1152.499999999999
 20
1492.165796905608
 30
0.0
 11
1205.393401015227
 21
1512.165796905608
 31
0.0
 70
    32
 71
     5
 42
30.0
  3
ISO-25
100
AcDbAlignedDimension
 13
1122.499999999999
 23
1411.265796905608
 33
0.0
 14
1152.499999999999
 24
1411.265796905608
 34
0.0
100
AcDbRotatedDimension
  0
LINE
  5
AB6F
330
2
100
AcDbEntity
  8
寸法線
  6
Continuous
100
AcDbLine
 10
1122.503080999999
 20
1421.565796905608
 30
0.0
 11
1122.503080999999
 21
1372.965796905608
 31
0.0
  0
LINE
  5
AC1F
330
2
100
AcDbEntity
  8
寸法線
  6
Continuous
100
AcDbLine
 10
1152.499999999999
 20
1421.565796905608
 30
0.0
 11
1152.499999999999
 21
1372.965796905608
 31
0.0
  0
DIMENSION
  5
B3AF
330
2
100
AcDbEntity
  8
寸法線
 48
3.0
100
AcDbDimension
  2
*D33
 10
1585.006973819266
 20
1412.165796905608
 30
0.0
 11
1565.006973819266
 21
1465.287624316776
 31
0.0
 70
    32
 71
     5
 42
40.0
  3
ISO-25
100
AcDbAlignedDimension
 13
1394.999999999999
 23
1372.165796905608
 33
0.0
 14
1394.999999999999
 24
1412.165796905608
 34
0.0
 50
90.0
100
AcDbRotatedDimension
  0
DIMENSION
  5
B3B0
330
2
100
AcDbEntity
  8
寸法線
  6
Continuous
100
AcDbDimension
  2
*D34
 10
1505.002042823504
 20
1412.165796905608
 30
0.0
 11
1485.002042823504
 21
1464.754629392918
 31
0.0
 70
    32
 71
     5
 42
32.0
  3
ISO-25
100
AcDbAlignedDimension
 13
1394.999999999999
 23
1380.165796905608
 33
0.0
 14
1394.999999999999
 24
1412.165796905608
 34
0.0
 50
90.0
100
AcDbRotatedDimension
  0
LINE
  5
B3B1
330
2
100
AcDbEntity
  8
本体
100
AcDbLine
 10
1394.999999999999
 20
1412.165796905608
 30
0.0
 11
1394.999999999999
 21
1406.165796905608
 31
0.0
  0
LINE
  5
B3B2
330
2
100
AcDbEntity
  8
本体
100
AcDbLine
 10
1389.999999999999
 20
1412.165796905608
 30
0.0
 11
1389.999999999999
 21
1406.165796905608
 31
0.0
  0
LINE
  5
B3B3
330
2
100
AcDbEntity
  8
本体
100
AcDbLine
 10
1394.999999999999
 20
1412.165796905608
 30
0.0
 11
1394.999999999999
 21
1406.165796905608
 31
0.0
  0
LINE
  5
B3B4
330
2
100
AcDbEntity
  8
本体
100
AcDbLine
 10
1389.999999999999
 20
1412.165796905608
 30
0.0
 11
1389.999999999999
 21
1406.165796905608
 31
0.0
  0
LINE
  5
B3B5
330
2
100
AcDbEntity
  8
本体
100
AcDbLine
 10
1394.999999999999
 20
1412.165796905608
 30
0.0
 11
1394.999999999999
 21
1406.165796905608
 31
0.0
  0
LINE
  5
B3B6
330
2
100
AcDbEntity
  8
本体
100
AcDbLine
 10
1389.999999999999
 20
1412.165796905608
 30
0.0
 11
1389.999999999999
 21
1406.165796905608
 31
0.0
  0
LINE
  5
B3BE
330
2
100
AcDbEntity
  8
嵩上平面
100
AcDbLine
 10
1394.999999999999
 20
1372.165796905608
 30
0.0
 11
1394.999999999999
 21
1412.165796905608
 31
0.0
  0
LINE
  5
B3DB
330
2
100
AcDbEntity
  8
本体
100
AcDbLine
 10
1394.999999999999
 20
1406.165796905608
 30
0.0
 11
1393.999999999999
 21
1405.165796905608
 31
0.0
  0
LINE
  5
B3DC
330
2
100
AcDbEntity
  8
本体
100
AcDbLine
 10
1389.999999999999
 20
1406.165796905608
 30
0.0
 11
1390.999999999999
 21
1405.165796905608
 31
0.0
  0
LINE
  5
B3DD
330
2
100
AcDbEntity
  8
本体
100
AcDbLine
 10
1394.999999999999
 20
1406.165796905608
 30
0.0
 11
1393.999999999999
 21
1405.165796905608
 31
0.0
  0
LINE
  5
B3DE
330
2
100
AcDbEntity
  8
本体
100
AcDbLine
 10
1389.999999999999
 20
1406.165796905608
 30
0.0
 11
1390.999999999999
 21
1405.165796905608
 31
0.0
  0
LINE
  5
B3DF
330
2
100
AcDbEntity
  8
本体
100
AcDbLine
 10
1394.999999999999
 20
1406.165796905608
 30
0.0
 11
1393.999999999999
 21
1405.165796905608
 31
0.0
  0
LINE
  5
B3E0
330
2
100
AcDbEntity
  8
本体
100
AcDbLine
 10
1389.999999999999
 20
1406.165796905608
 30
0.0
 11
1390.999999999999
 21
1405.165796905608
 31
0.0
  0
LINE
  5
B3E1
330
2
100
AcDbEntity
  8
本体
100
AcDbLine
 10
1389.999999999999
 20
1380.165796905608
 30
0.0
 11
1394.999999999999
 21
1380.165796905608
 31
0.0
  0
LINE
  5
B3E2
330
2
100
AcDbEntity
  8
本体
100
AcDbLine
 10
1394.999999999999
 20
1380.165796905608
 30
0.0
 11
1394.999999999999
 21
1386.165796905608
 31
0.0
  0
LINE
  5
B3E3
330
2
100
AcDbEntity
  8
本体
100
AcDbLine
 10
1394.999999999999
 20
1386.165796905608
 30
0.0
 11
1393.999999999999
 21
1387.165796905608
 31
0.0
  0
LINE
  5
B3E4
330
2
100
AcDbEntity
  8
本体
100
AcDbLine
 10
1389.999999999999
 20
1380.165796905608
 30
0.0
 11
1389.999999999999
 21
1386.165796905608
 31
0.0
  0
LINE
  5
B3E5
330
2
100
AcDbEntity
  8
本体
100
AcDbLine
 10
1389.999999999999
 20
1386.165796905608
 30
0.0
 11
1390.999999999999
 21
1387.165796905608
 31
0.0
  0
LINE
  5
B3E6
330
2
100
AcDbEntity
  8
本体
100
AcDbLine
 10
1389.999999999999
 20
1380.165796905608
 30
0.0
 11
1394.999999999999
 21
1380.165796905608
 31
0.0
  0
LINE
  5
B3E7
330
2
100
AcDbEntity
  8
本体
100
AcDbLine
 10
1394.999999999999
 20
1380.165796905608
 30
0.0
 11
1394.999999999999
 21
1386.165796905608
 31
0.0
  0
LINE
  5
B3E8
330
2
100
AcDbEntity
  8
本体
100
AcDbLine
 10
1394.999999999999
 20
1386.165796905608
 30
0.0
 11
1393.999999999999
 21
1387.165796905608
 31
0.0
  0
LINE
  5
B3E9
330
2
100
AcDbEntity
  8
本体
100
AcDbLine
 10
1389.999999999999
 20
1380.165796905608
 30
0.0
 11
1389.999999999999
 21
1386.165796905608
 31
0.0
  0
LINE
  5
B3EA
330
2
100
AcDbEntity
  8
本体
100
AcDbLine
 10
1389.999999999999
 20
1386.165796905608
 30
0.0
 11
1390.999999999999
 21
1387.165796905608
 31
0.0
  0
LINE
  5
B3EB
330
2
100
AcDbEntity
  8
本体
100
AcDbLine
 10
1389.999999999999
 20
1380.165796905608
 30
0.0
 11
1394.999999999999
 21
1380.165796905608
 31
0.0
  0
LINE
  5
B3EC
330
2
100
AcDbEntity
  8
本体
100
AcDbLine
 10
1394.999999999999
 20
1380.165796905608
 30
0.0
 11
1394.999999999999
 21
1386.165796905608
 31
0.0
  0
LINE
  5
B3ED
330
2
100
AcDbEntity
  8
本体
100
AcDbLine
 10
1394.999999999999
 20
1386.165796905608
 30
0.0
 11
1393.999999999999
 21
1387.165796905608
 31
0.0
  0
LINE
  5
B3EE
330
2
100
AcDbEntity
  8
本体
100
AcDbLine
 10
1389.999999999999
 20
1380.165796905608
 30
0.0
 11
1389.999999999999
 21
1386.165796905608
 31
0.0
  0
LINE
  5
B3EF
330
2
100
AcDbEntity
  8
本体
100
AcDbLine
 10
1389.999999999999
 20
1386.165796905608
 30
0.0
 11
1390.999999999999
 21
1387.165796905608
 31
0.0
  0
LINE
  5
B3F0
330
2
100
AcDbEntity
  8
本体
100
AcDbLine
 10
1390.999999999999
 20
1405.165796905608
 30
0.0
 11
1390.999999999999
 21
1387.165796905608
 31
0.0
  0
LINE
  5
B3F1
330
2
100
AcDbEntity
  8
本体
100
AcDbLine
 10
1393.999999999999
 20
1405.165796905608
 30
0.0
 11
1393.999999999999
 21
1387.165796905608
 31
0.0
  0
LINE
  5
B3F2
330
2
100
AcDbEntity
  8
本体
100
AcDbLine
 10
1390.999999999999
 20
1405.165796905608
 30
0.0
 11
1390.999999999999
 21
1387.165796905608
 31
0.0
  0
LINE
  5
B3F3
330
2
100
AcDbEntity
  8
本体
100
AcDbLine
 10
1393.999999999999
 20
1405.165796905608
 30
0.0
 11
1393.999999999999
 21
1387.165796905608
 31
0.0
  0
LINE
  5
B3F4
330
2
100
AcDbEntity
  8
本体
100
AcDbLine
 10
1390.999999999999
 20
1405.165796905608
 30
0.0
 11
1390.999999999999
 21
1387.165796905608
 31
0.0
  0
LINE
  5
B3F5
330
2
100
AcDbEntity
  8
本体
100
AcDbLine
 10
1393.999999999999
 20
1405.165796905608
 30
0.0
 11
1393.999999999999
 21
1387.165796905608
 31
0.0
  0
LINE
  5
B3FA
330
2
100
AcDbEntity
  8
本体
100
AcDbLine
 10
1389.999999999999
 20
1412.165796905608
 30
0.0
 11
1394.999999999999
 21
1412.165796905608
 31
0.0
  0
LINE
  5
B3FB
330
2
100
AcDbEntity
  8
本体
100
AcDbLine
 10
1389.999999999999
 20
1412.165796905608
 30
0.0
 11
1394.999999999999
 21
1412.165796905608
 31
0.0
  0
LINE
  5
B3FC
330
2
100
AcDbEntity
  8
本体
100
AcDbLine
 10
1389.999999999999
 20
1412.165796905608
 30
0.0
 11
1394.999999999999
 21
1412.165796905608
 31
0.0
  0
DIMENSION
  5
B3FD
330
2
100
AcDbEntity
  8
寸法線
 48
3.0
100
AcDbDimension
  2
*D35
 10
2332.176908156269
 20
1569.86385720668
 30
0.0
 11
2385.298735567437
 21
1589.86385720668
 31
0.0
 70
    32
 71
     5
 42
40.0
  3
ISO-25
100
AcDbAlignedDimension
 13
2292.176908156269
 23
1412.165796905607
 33
0.0
 14
2332.176908156269
 24
1412.165796905608
 34
0.0
100
AcDbRotatedDimension
  0
DIMENSION
  5
B3FE
330
2
100
AcDbEntity
  8
寸法線
 48
3.0
100
AcDbDimension
  2
*D36
 10
2332.176908156269
 20
1649.860376811634
 30
0.0
 11
2150.176908156269
 21
1669.860376811634
 31
0.0
 70
    32
 71
     5
 42
364.0
  3
ISO-25
100
AcDbAlignedDimension
 13
1968.176908156269
 23
1412.165796905608
 33
0.0
 14
2332.176908156269
 24
1412.165796905608
 34
0.0
100
AcDbRotatedDimension
  0
DIMENSION
  5
B470
330
2
100
AcDbEntity
  8
寸法線
 48
3.0
100
AcDbDimension
  2
*D37
 10
2295.176908156269
 20
1294.661371558865
 30
0.0
 11
2150.176908156269
 21
1314.661371558864
 31
0.0
 70
    32
 71
     5
 42
290.0
  3
ISO-25
100
AcDbAlignedDimension
 13
2005.176908156269
 23
1374.365796905608
 33
0.0
 14
2295.176908156269
 24
1374.365796905607
 34
0.0
100
AcDbRotatedDimension
  0
DIMENSION
  5
B471
330
2
100
AcDbEntity
  8
寸法線
 48
3.0
100
AcDbDimension
  2
*D38
 10
2008.176908156269
 20
1569.863857206681
 30
0.0
 11
2150.176908156269
 21
1589.863857206681
 31
0.0
 70
    32
 71
     5
 42
284.0
  3
ISO-25
100
AcDbAlignedDimension
 13
2292.176908156269
 23
1412.165796905607
 33
0.0
 14
2008.176908156269
 24
1412.165796905608
 34
0.0
100
AcDbRotatedDimension
  0
LINE
  5
B472
330
2
100
AcDbEntity
  8
本体
  6
Continuous
100
AcDbLine
 10
2292.176908156269
 20
1386.165796905608
 30
0.0
 11
2008.176908156269
 21
1386.165796905608
 31
0.0
  0
LINE
  5
B473
330
2
100
AcDbEntity
  8
本体
  6
Continuous
100
AcDbLine
 10
2292.176908156269
 20
1380.165796905608
 30
0.0
 11
2008.176908156269
 21
1380.165796905608
 31
0.0
  0
LINE
  5
B474
330
2
100
AcDbEntity
  8
本体
  6
Continuous
100
AcDbLine
 10
2292.176908156269
 20
1406.165796905608
 30
0.0
 11
2008.176908156269
 21
1406.165796905608
 31
0.0
  0
LINE
  5
B475
330
2
100
AcDbEntity
  8
本体
  6
Continuous
100
AcDbLine
 10
2292.176908156269
 20
1412.165796905608
 30
0.0
 11
2008.176908156269
 21
1412.165796905608
 31
0.0
  0
INSERT
  5
B476
330
2
100
AcDbEntity
  8
嵩上断面
 48
3.0
100
AcDbBlockReference
  2
ｱﾝｸﾞﾙ断面　L3ｘ40ｘ40
 10
2008.176908156269
 20
1412.165796905608
 30
0.0
 41
-1.0
 50
90.0
  0
INSERT
  5
B477
330
2
100
AcDbEntity
  8
本体
  6
Continuous
100
AcDbBlockReference
  2
TB6
 10
2050.176908156269
 20
1412.165796905608
 30
0.0
 50
270.0
  0
DIMENSION
  5
B478
330
2
100
AcDbEntity
  8
寸法線
 48
3.0
100
AcDbDimension
  2
*D39
 10
1968.176908156269
 20
1569.863857206681
 30
0.0
 11
1915.055080745102
 21
1589.863857206681
 31
0.0
 70
    32
 71
     5
 42
40.0
  3
ISO-25
100
AcDbAlignedDimension
 13
2008.176908156269
 23
1412.165796905608
 33
0.0
 14
1968.176908156269
 24
1412.165796905608
 34
0.0
100
AcDbRotatedDimension
  0
INSERT
  5
B479
330
2
100
AcDbEntity
  8
本体
  6
Continuous
100
AcDbBlockReference
  2
TB6
 10
2100.176908156269
 20
1412.165796905608
 30
0.0
 50
270.0
  0
INSERT
  5
B47A
330
2
100
AcDbEntity
  8
本体
  6
Continuous
100
AcDbBlockReference
  2
TB6
 10
2200.176908156269
 20
1412.165796905608
 30
0.0
 50
270.0
  0
INSERT
  5
B47B
330
2
100
AcDbEntity
  8
嵩上断面
 48
3.0
100
AcDbBlockReference
  2
ｱﾝｸﾞﾙ断面　L3ｘ40ｘ40
 10
2292.176908156269
 20
1412.165796905608
 30
0.0
 50
270.0
  0
INSERT
  5
B47C
330
2
100
AcDbEntity
  8
本体
  6
Continuous
100
AcDbBlockReference
  2
TB6
 10
2250.176908156269
 20
1412.165796905608
 30
0.0
 50
270.0
  0
INSERT
  5
B47D
330
2
100
AcDbEntity
  8
本体
  6
Continuous
100
AcDbBlockReference
  2
TB6
 10
2150.176908156269
 20
1412.165796905608
 30
0.0
 50
270.0
  0
DIMENSION
  5
B47E
330
2
100
AcDbEntity
  8
寸法線
  6
Continuous
100
AcDbDimension
  2
*D40
 10
2200.176908156269
 20
1489.861906090171
 30
0.0
 11
2225.176908156269
 21
1509.86190609017
 31
0.0
 70
    32
 71
     5
 42
50.0
  3
ISO-25
100
AcDbAlignedDimension
 13
2250.176908156269
 23
1409.865796905607
 33
0.0
 14
2200.176908156269
 24
1415.165796905608
 34
0.0
100
AcDbRotatedDimension
  0
LINE
  5
BA6E
330
2
100
AcDbEntity
  8
本体
100
AcDbLine
 10
1394.999999999999
 20
1412.165796905608
 30
0.0
 11
1394.999999999999
 21
1406.165796905608
 31
0.0
  0
LINE
  5
BA6F
330
2
100
AcDbEntity
  8
本体
100
AcDbLine
 10
1389.999999999999
 20
1412.165796905608
 30
0.0
 11
1389.999999999999
 21
1406.165796905608
 31
0.0
  0
LINE
  5
BA70
330
2
100
AcDbEntity
  8
本体
100
AcDbLine
 10
1394.999999999999
 20
1412.165796905608
 30
0.0
 11
1394.999999999999
 21
1406.165796905608
 31
0.0
  0
LINE
  5
BA71
330
2
100
AcDbEntity
  8
本体
100
AcDbLine
 10
1389.999999999999
 20
1412.165796905608
 30
0.0
 11
1389.999999999999
 21
1406.165796905608
 31
0.0
  0
LINE
  5
BA72
330
2
100
AcDbEntity
  8
本体
100
AcDbLine
 10
1394.999999999999
 20
1412.165796905608
 30
0.0
 11
1394.999999999999
 21
1406.165796905608
 31
0.0
  0
LINE
  5
BA73
330
2
100
AcDbEntity
  8
本体
100
AcDbLine
 10
1389.999999999999
 20
1412.165796905608
 30
0.0
 11
1389.999999999999
 21
1406.165796905608
 31
0.0
  0
LINE
  5
BA75
330
2
100
AcDbEntity
  8
本体
100
AcDbLine
 10
1364.999999999999
 20
1412.165796905608
 30
0.0
 11
1364.999999999999
 21
1406.165796905608
 31
0.0
  0
LINE
  5
BA76
330
2
100
AcDbEntity
  8
本体
100
AcDbLine
 10
1359.999999999999
 20
1412.165796905608
 30
0.0
 11
1359.999999999999
 21
1406.165796905608
 31
0.0
  0
LINE
  5
BA77
330
2
100
AcDbEntity
  8
本体
100
AcDbLine
 10
1364.999999999999
 20
1412.165796905608
 30
0.0
 11
1364.999999999999
 21
1406.165796905608
 31
0.0
  0
LINE
  5
BA78
330
2
100
AcDbEntity
  8
本体
100
AcDbLine
 10
1359.999999999999
 20
1412.165796905608
 30
0.0
 11
1359.999999999999
 21
1406.165796905608
 31
0.0
  0
LINE
  5
BA79
330
2
100
AcDbEntity
  8
本体
100
AcDbLine
 10
1364.999999999999
 20
1412.165796905608
 30
0.0
 11
1364.999999999999
 21
1406.165796905608
 31
0.0
  0
LINE
  5
BA7A
330
2
100
AcDbEntity
  8
本体
100
AcDbLine
 10
1359.999999999999
 20
1412.165796905608
 30
0.0
 11
1359.999999999999
 21
1406.165796905608
 31
0.0
  0
LINE
  5
BA7B
330
2
100
AcDbEntity
  8
本体
100
AcDbLine
 10
1364.999999999999
 20
1406.165796905608
 30
0.0
 11
1363.999999999999
 21
1405.165796905608
 31
0.0
  0
LINE
  5
BA7C
330
2
100
AcDbEntity
  8
本体
100
AcDbLine
 10
1359.999999999999
 20
1406.165796905608
 30
0.0
 11
1360.999999999999
 21
1405.165796905608
 31
0.0
  0
LINE
  5
BA7D
330
2
100
AcDbEntity
  8
本体
100
AcDbLine
 10
1364.999999999999
 20
1406.165796905608
 30
0.0
 11
1363.999999999999
 21
1405.165796905608
 31
0.0
  0
LINE
  5
BA7E
330
2
100
AcDbEntity
  8
本体
100
AcDbLine
 10
1359.999999999999
 20
1406.165796905608
 30
0.0
 11
1360.999999999999
 21
1405.165796905608
 31
0.0
  0
LINE
  5
BA7F
330
2
100
AcDbEntity
  8
本体
100
AcDbLine
 10
1364.999999999999
 20
1406.165796905608
 30
0.0
 11
1363.999999999999
 21
1405.165796905608
 31
0.0
  0
LINE
  5
BA80
330
2
100
AcDbEntity
  8
本体
100
AcDbLine
 10
1359.999999999999
 20
1406.165796905608
 30
0.0
 11
1360.999999999999
 21
1405.165796905608
 31
0.0
  0
LINE
  5
BA81
330
2
100
AcDbEntity
  8
本体
100
AcDbLine
 10
1359.999999999999
 20
1380.165796905608
 30
0.0
 11
1364.999999999999
 21
1380.165796905608
 31
0.0
  0
LINE
  5
BA82
330
2
100
AcDbEntity
  8
本体
100
AcDbLine
 10
1364.999999999999
 20
1380.165796905608
 30
0.0
 11
1364.999999999999
 21
1386.165796905608
 31
0.0
  0
LINE
  5
BA83
330
2
100
AcDbEntity
  8
本体
100
AcDbLine
 10
1364.999999999999
 20
1386.165796905608
 30
0.0
 11
1363.999999999999
 21
1387.165796905608
 31
0.0
  0
LINE
  5
BA84
330
2
100
AcDbEntity
  8
本体
100
AcDbLine
 10
1359.999999999999
 20
1380.165796905608
 30
0.0
 11
1359.999999999999
 21
1386.165796905608
 31
0.0
  0
LINE
  5
BA85
330
2
100
AcDbEntity
  8
本体
100
AcDbLine
 10
1359.999999999999
 20
1386.165796905608
 30
0.0
 11
1360.999999999999
 21
1387.165796905608
 31
0.0
  0
LINE
  5
BA86
330
2
100
AcDbEntity
  8
本体
100
AcDbLine
 10
1359.999999999999
 20
1380.165796905608
 30
0.0
 11
1364.999999999999
 21
1380.165796905608
 31
0.0
  0
LINE
  5
BA87
330
2
100
AcDbEntity
  8
本体
100
AcDbLine
 10
1364.999999999999
 20
1380.165796905608
 30
0.0
 11
1364.999999999999
 21
1386.165796905608
 31
0.0
  0
LINE
  5
BA88
330
2
100
AcDbEntity
  8
本体
100
AcDbLine
 10
1364.999999999999
 20
1386.165796905608
 30
0.0
 11
1363.999999999999
 21
1387.165796905608
 31
0.0
  0
LINE
  5
BA89
330
2
100
AcDbEntity
  8
本体
100
AcDbLine
 10
1359.999999999999
 20
1380.165796905608
 30
0.0
 11
1359.999999999999
 21
1386.165796905608
 31
0.0
  0
LINE
  5
BA8A
330
2
100
AcDbEntity
  8
本体
100
AcDbLine
 10
1359.999999999999
 20
1386.165796905608
 30
0.0
 11
1360.999999999999
 21
1387.165796905608
 31
0.0
  0
LINE
  5
BA8B
330
2
100
AcDbEntity
  8
本体
100
AcDbLine
 10
1359.999999999999
 20
1380.165796905608
 30
0.0
 11
1364.999999999999
 21
1380.165796905608
 31
0.0
  0
LINE
  5
BA8C
330
2
100
AcDbEntity
  8
本体
100
AcDbLine
 10
1364.999999999999
 20
1380.165796905608
 30
0.0
 11
1364.999999999999
 21
1386.165796905608
 31
0.0
  0
LINE
  5
BA8D
330
2
100
AcDbEntity
  8
本体
100
AcDbLine
 10
1364.999999999999
 20
1386.165796905608
 30
0.0
 11
1363.999999999999
 21
1387.165796905608
 31
0.0
  0
LINE
  5
BA8E
330
2
100
AcDbEntity
  8
本体
100
AcDbLine
 10
1359.999999999999
 20
1380.165796905608
 30
0.0
 11
1359.999999999999
 21
1386.165796905608
 31
0.0
  0
LINE
  5
BA8F
330
2
100
AcDbEntity
  8
本体
100
AcDbLine
 10
1359.999999999999
 20
1386.165796905608
 30
0.0
 11
1360.999999999999
 21
1387.165796905608
 31
0.0
  0
LINE
  5
BA90
330
2
100
AcDbEntity
  8
本体
100
AcDbLine
 10
1360.999999999999
 20
1405.165796905608
 30
0.0
 11
1360.999999999999
 21
1387.165796905608
 31
0.0
  0
LINE
  5
BA91
330
2
100
AcDbEntity
  8
本体
100
AcDbLine
 10
1363.999999999999
 20
1405.165796905608
 30
0.0
 11
1363.999999999999
 21
1387.165796905608
 31
0.0
  0
LINE
  5
BA92
330
2
100
AcDbEntity
  8
本体
100
AcDbLine
 10
1360.999999999999
 20
1405.165796905608
 30
0.0
 11
1360.999999999999
 21
1387.165796905608
 31
0.0
  0
LINE
  5
BA93
330
2
100
AcDbEntity
  8
本体
100
AcDbLine
 10
1363.999999999999
 20
1405.165796905608
 30
0.0
 11
1363.999999999999
 21
1387.165796905608
 31
0.0
  0
LINE
  5
BA94
330
2
100
AcDbEntity
  8
本体
100
AcDbLine
 10
1360.999999999999
 20
1405.165796905608
 30
0.0
 11
1360.999999999999
 21
1387.165796905608
 31
0.0
  0
LINE
  5
BA95
330
2
100
AcDbEntity
  8
本体
100
AcDbLine
 10
1363.999999999999
 20
1405.165796905608
 30
0.0
 11
1363.999999999999
 21
1387.165796905608
 31
0.0
  0
LINE
  5
BA97
330
2
100
AcDbEntity
  8
本体
100
AcDbLine
 10
1394.999999999999
 20
1406.165796905608
 30
0.0
 11
1393.999999999999
 21
1405.165796905608
 31
0.0
  0
LINE
  5
BA98
330
2
100
AcDbEntity
  8
本体
100
AcDbLine
 10
1389.999999999999
 20
1406.165796905608
 30
0.0
 11
1390.999999999999
 21
1405.165796905608
 31
0.0
  0
LINE
  5
BA99
330
2
100
AcDbEntity
  8
本体
100
AcDbLine
 10
1394.999999999999
 20
1406.165796905608
 30
0.0
 11
1393.999999999999
 21
1405.165796905608
 31
0.0
  0
LINE
  5
BA9A
330
2
100
AcDbEntity
  8
本体
100
AcDbLine
 10
1389.999999999999
 20
1406.165796905608
 30
0.0
 11
1390.999999999999
 21
1405.165796905608
 31
0.0
  0
LINE
  5
BA9B
330
2
100
AcDbEntity
  8
本体
100
AcDbLine
 10
1394.999999999999
 20
1406.165796905608
 30
0.0
 11
1393.999999999999
 21
1405.165796905608
 31
0.0
  0
LINE
  5
BA9C
330
2
100
AcDbEntity
  8
本体
100
AcDbLine
 10
1389.999999999999
 20
1406.165796905608
 30
0.0
 11
1390.999999999999
 21
1405.165796905608
 31
0.0
  0
LINE
  5
BA9D
330
2
100
AcDbEntity
  8
本体
100
AcDbLine
 10
1389.999999999999
 20
1380.165796905608
 30
0.0
 11
1394.999999999999
 21
1380.165796905608
 31
0.0
  0
LINE
  5
BA9E
330
2
100
AcDbEntity
  8
本体
100
AcDbLine
 10
1394.999999999999
 20
1380.165796905608
 30
0.0
 11
1394.999999999999
 21
1386.165796905608
 31
0.0
  0
LINE
  5
BA9F
330
2
100
AcDbEntity
  8
本体
100
AcDbLine
 10
1394.999999999999
 20
1386.165796905608
 30
0.0
 11
1393.999999999999
 21
1387.165796905608
 31
0.0
  0
LINE
  5
BAA0
330
2
100
AcDbEntity
  8
本体
100
AcDbLine
 10
1389.999999999999
 20
1380.165796905608
 30
0.0
 11
1389.999999999999
 21
1386.165796905608
 31
0.0
  0
LINE
  5
BAA1
330
2
100
AcDbEntity
  8
本体
100
AcDbLine
 10
1389.999999999999
 20
1386.165796905608
 30
0.0
 11
1390.999999999999
 21
1387.165796905608
 31
0.0
  0
LINE
  5
BAA2
330
2
100
AcDbEntity
  8
本体
100
AcDbLine
 10
1389.999999999999
 20
1380.165796905608
 30
0.0
 11
1394.999999999999
 21
1380.165796905608
 31
0.0
  0
LINE
  5
BAA3
330
2
100
AcDbEntity
  8
本体
100
AcDbLine
 10
1394.999999999999
 20
1380.165796905608
 30
0.0
 11
1394.999999999999
 21
1386.165796905608
 31
0.0
  0
LINE
  5
BAA4
330
2
100
AcDbEntity
  8
本体
100
AcDbLine
 10
1394.999999999999
 20
1386.165796905608
 30
0.0
 11
1393.999999999999
 21
1387.165796905608
 31
0.0
  0
LINE
  5
BAA5
330
2
100
AcDbEntity
  8
本体
100
AcDbLine
 10
1389.999999999999
 20
1380.165796905608
 30
0.0
 11
1389.999999999999
 21
1386.165796905608
 31
0.0
  0
LINE
  5
BAA6
330
2
100
AcDbEntity
  8
本体
100
AcDbLine
 10
1389.999999999999
 20
1386.165796905608
 30
0.0
 11
1390.999999999999
 21
1387.165796905608
 31
0.0
  0
LINE
  5
BAA7
330
2
100
AcDbEntity
  8
本体
100
AcDbLine
 10
1389.999999999999
 20
1380.165796905608
 30
0.0
 11
1394.999999999999
 21
1380.165796905608
 31
0.0
  0
LINE
  5
BAA8
330
2
100
AcDbEntity
  8
本体
100
AcDbLine
 10
1394.999999999999
 20
1380.165796905608
 30
0.0
 11
1394.999999999999
 21
1386.165796905608
 31
0.0
  0
LINE
  5
BAA9
330
2
100
AcDbEntity
  8
本体
100
AcDbLine
 10
1394.999999999999
 20
1386.165796905608
 30
0.0
 11
1393.999999999999
 21
1387.165796905608
 31
0.0
  0
LINE
  5
BAAA
330
2
100
AcDbEntity
  8
本体
100
AcDbLine
 10
1389.999999999999
 20
1380.165796905608
 30
0.0
 11
1389.999999999999
 21
1386.165796905608
 31
0.0
  0
LINE
  5
BAAB
330
2
100
AcDbEntity
  8
本体
100
AcDbLine
 10
1389.999999999999
 20
1386.165796905608
 30
0.0
 11
1390.999999999999
 21
1387.165796905608
 31
0.0
  0
LINE
  5
BAAC
330
2
100
AcDbEntity
  8
本体
100
AcDbLine
 10
1390.999999999999
 20
1405.165796905608
 30
0.0
 11
1390.999999999999
 21
1387.165796905608
 31
0.0
  0
LINE
  5
BAAD
330
2
100
AcDbEntity
  8
本体
100
AcDbLine
 10
1393.999999999999
 20
1405.165796905608
 30
0.0
 11
1393.999999999999
 21
1387.165796905608
 31
0.0
  0
LINE
  5
BAAE
330
2
100
AcDbEntity
  8
本体
100
AcDbLine
 10
1390.999999999999
 20
1405.165796905608
 30
0.0
 11
1390.999999999999
 21
1387.165796905608
 31
0.0
  0
LINE
  5
BAAF
330
2
100
AcDbEntity
  8
本体
100
AcDbLine
 10
1393.999999999999
 20
1405.165796905608
 30
0.0
 11
1393.999999999999
 21
1387.165796905608
 31
0.0
  0
LINE
  5
BAB0
330
2
100
AcDbEntity
  8
本体
100
AcDbLine
 10
1390.999999999999
 20
1405.165796905608
 30
0.0
 11
1390.999999999999
 21
1387.165796905608
 31
0.0
  0
LINE
  5
BAB1
330
2
100
AcDbEntity
  8
本体
100
AcDbLine
 10
1393.999999999999
 20
1405.165796905608
 30
0.0
 11
1393.999999999999
 21
1387.165796905608
 31
0.0
  0
LINE
  5
BAB2
330
2
100
AcDbEntity
  8
本体
  6
Continuous
100
AcDbLine
 10
1364.999999999999
 20
1412.165796905608
 30
0.0
 11
1389.999999999999
 21
1412.165796905607
 31
0.0
  0
LINE
  5
BAB3
330
2
100
AcDbEntity
  8
本体
100
AcDbLine
 10
1359.999999999999
 20
1412.165796905608
 30
0.0
 11
1364.999999999999
 21
1412.165796905608
 31
0.0
  0
LINE
  5
BAB4
330
2
100
AcDbEntity
  8
本体
100
AcDbLine
 10
1359.999999999999
 20
1412.165796905608
 30
0.0
 11
1364.999999999999
 21
1412.165796905608
 31
0.0
  0
LINE
  5
BAB5
330
2
100
AcDbEntity
  8
本体
100
AcDbLine
 10
1359.999999999999
 20
1412.165796905608
 30
0.0
 11
1364.999999999999
 21
1412.165796905608
 31
0.0
  0
LINE
  5
BAB7
330
2
100
AcDbEntity
  8
本体
100
AcDbLine
 10
1389.999999999999
 20
1412.165796905608
 30
0.0
 11
1394.999999999999
 21
1412.165796905608
 31
0.0
  0
LINE
  5
BAB8
330
2
100
AcDbEntity
  8
本体
100
AcDbLine
 10
1389.999999999999
 20
1412.165796905608
 30
0.0
 11
1394.999999999999
 21
1412.165796905608
 31
0.0
  0
LINE
  5
BAB9
330
2
100
AcDbEntity
  8
本体
100
AcDbLine
 10
1389.999999999999
 20
1412.165796905608
 30
0.0
 11
1394.999999999999
 21
1412.165796905608
 31
0.0
  0
HATCH
  5
BABA
330
2
100
AcDbEntity
  8
エンボス
 48
3.0
100
AcDbHatch
 10
0.0
 20
0.0
 30
0.0
210
0.0
220
0.0
230
1.0
  2
ANSI31
 70
     0
 71
     0
 91
        1
 92
        7
 72
     0
 73
     1
 93
        8
 10
1390.999999999999
 20
1405.165796905608
 10
1389.999999999999
 20
1406.165796905608
 10
1389.999999999999
 20
1412.165796905608
 10
1364.999999999999
 20
1412.165796905608
 10
1364.999999999999
 20
1406.165796905608
 10
1363.999999999999
 20
1405.165796905608
 10
1363.999999999999
 20
1397.165796905608
 10
1390.999999999999
 20
1397.165796905608
 97
        0
 75
     1
 76
     1
 52
0.0
 41
1.0
 77
     0
 78
     1
 53
45.0
 43
-1600.990385083417
 44
689.9797123442915
 45
-2.245064030267287
 46
2.245064030267287
 79
     0
 47
0.1880432145654093
 98
        1
 10
1374.021579728761
 20
1404.93375600689
1001
GradientColor1ACI
1070
     5
1001
GradientColor2ACI
1070
     2
1001
ACAD
1010
0.0
1020
0.0
1030
0.0
  0
LINE
  5
BABB
330
2
100
AcDbEntity
  8
本体
 48
3.0
100
AcDbLine
 10
1363.999999999999
 20
1397.165796905608
 30
0.0
 11
1390.999999999999
 21
1397.165796905608
 31
0.0
  0
LINE
  5
BABC
330
2
100
AcDbEntity
  8
本体
 48
3.0
100
AcDbLine
 10
1363.999999999999
 20
1394.165796905608
 30
0.0
 11
1390.999999999999
 21
1394.165796905608
 31
0.0
  0
LINE
  5
BB06
330
2
100
AcDbEntity
  8
本体
  6
Continuous
100
AcDbLine
 10
2292.176908156269
 20
1397.165796905608
 30
0.0
 11
2008.176908156269
 21
1397.165796905608
 31
0.0
  0
LINE
  5
BB07
330
2
100
AcDbEntity
  8
本体
  6
Continuous
100
AcDbLine
 10
2292.176908156269
 20
1394.165796905608
 30
0.0
 11
2008.176908156269
 21
1394.165796905608
 31
0.0
  0
HATCH
  5
BBA9
330
2
100
AcDbEntity
  8
エンボス
 48
3.0
100
AcDbHatch
 10
0.0
 20
0.0
 30
0.0
210
0.0
220
0.0
230
1.0
  2
ANSI31
 70
     0
 71
     0
 91
        8
 92
        7
 72
     0
 73
     1
 93
        4
 10
2292.176908156269
 20
1397.165796905608
 10
2292.176908156269
 20
1406.165796905608
 10
2008.176908156269
 20
1406.165796905608
 10
2008.176908156269
 20
1397.165796905608
 97
        0
 92
        7
 72
     1
 73
     1
 93
        4
 10
2292.176908156269
 20
1406.165796905608
 42
0.0
 10
2292.176908156269
 20
1412.165796905608
 42
0.0
 10
2250.176908156269
 20
1412.165796905608
 42
-1.0
 10
2250.176908156269
 20
1406.165796905608
 42
0.0
 97
        0
 92
        7
 72
     1
 73
     1
 93
        4
 10
2250.176908156269
 20
1406.165796905608
 42
-1.0
 10
2250.176908156269
 20
1412.165796905608
 42
0.0
 10
2200.176908156269
 20
1412.165796905608
 42
-1.0
 10
2200.176908156269
 20
1406.165796905608
 42
0.0
 97
        0
 92
        7
 72
     0
 73
     1
 93
        4
 10
2292.176908156269
 20
1394.165796905608
 10
2292.176908156269
 20
1397.165796905608
 10
2008.176908156269
 20
1397.165796905608
 10
2008.176908156269
 20
1394.165796905608
 97
        0
 92
        7
 72
     1
 73
     1
 93
        4
 10
2200.176908156269
 20
1406.165796905608
 42
-1.0
 10
2200.176908156269
 20
1412.165796905608
 42
0.0
 10
2150.176908156269
 20
1412.165796905608
 42
-1.0
 10
2150.176908156269
 20
1406.165796905608
 42
0.0
 97
        0
 92
        7
 72
     1
 73
     1
 93
        4
 10
2150.176908156269
 20
1406.165796905608
 42
-1.0
 10
2150.176908156269
 20
1412.165796905608
 42
0.0
 10
2100.176908156269
 20
1412.165796905608
 42
-1.0
 10
2100.176908156269
 20
1406.165796905608
 42
0.0
 97
        0
 92
        7
 72
     1
 73
     1
 93
        4
 10
2100.176908156269
 20
1406.165796905608
 42
-1.0
 10
2100.176908156269
 20
1412.165796905608
 42
0.0
 10
2050.176908156269
 20
1412.165796905608
 42
-1.0
 10
2050.176908156269
 20
1406.165796905608
 42
0.0
 97
        0
 92
        7
 72
     1
 73
     1
 93
        4
 10
2050.176908156269
 20
1406.165796905608
 42
-1.0
 10
2050.176908156269
 20
1412.165796905608
 42
0.0
 10
2008.176908156269
 20
1412.165796905608
 42
0.0
 10
2008.176908156269
 20
1406.165796905608
 42
0.0
 97
        0
 75
     1
 76
     1
 52
-90.00000000000001
 41
1.0
 77
     0
 78
     1
 53
315.0
 43
805.9373381278183
 44
5883.720664045807
 45
2.245064030267287
 46
2.245064030267287
 79
     0
 47
0.9172734778769708
 98
        8
 10
2265.105738644541
 20
1400.528805012405
 10
2267.399221064014
 20
1407.985756438507
 10
2239.877456444142
 20
1407.985756438507
 10
2258.798669315131
 20
1395.93991182711
 10
2182.540454550448
 20
1407.985756438507
 10
2128.070298356953
 20
1410.853807243238
 10
2085.640912658789
 20
1410.853807243238
 10
2039.197940050688
 20
1410.280203031156
1001
GradientColor1ACI
1070
     5
1001
GradientColor2ACI
1070
     2
1001
ACAD
1010
0.0
1020
0.0
1030
0.0
  0
LEADER
  5
BBAA
330
2
100
AcDbEntity
  8
ゴム
 48
3.0
100
AcDbLeader
  3
ISO-25
 73
     0
 74
     0
 75
     1
 40
31.82741116751269
 41
132.3350253807106
 76
     3
 10
2298.114166456462
 20
1406.228538605401
 30
0.0
 10
2348.788103644565
 20
1317.244125384724
 30
0.0
 10
2363.788103644565
 20
1317.244125384724
 30
0.0
340
BBAB
1001
ACAD
1000
DSTYLE
1002
{
1070
   147
1040
0.5
1070
    77
1070
     1
1002
}
  0
MTEXT
  5
BBAB
102
{ACAD_REACTORS
330
BBAA
102
}
330
2
100
AcDbEntity
  8
ゴム
 48
3.0
100
AcDbMText
 10
2368.788103644565
 20
1322.244125384724
 30
0.0
 40
30.0
 41
0.0
 71
     7
 72
     1
  1
URLゴム
 73
     1
 44
1.0
1001
ACAD
1000
MTEXTBEGIN
1070
    73
1070
     1
1070
    44
1040
1.0
1070
    74
1070
     0
1000
MTEXTEND
  0
LINE
  5
BBAC
102
{ACAD_REACTORS
330
BBB4
102
}
330
2
100
AcDbEntity
  8
ゴム
 48
3.0
100
AcDbLine
 10
1975.17690815628
 20
1407.165796905605
 30
0.0
 11
1999.976908156279
 21
1407.165796905604
 31
0.0
  0
LINE
  5
BBAD
102
{ACAD_REACTORS
330
BBB4
102
}
330
2
100
AcDbEntity
  8
ゴム
 48
3.0
100
AcDbLine
 10
1975.17690815628
 20
1409.165796905605
 30
0.0
 11
2000.67690815628
 21
1409.165796905604
 31
0.0
  0
ARC
  5
BBAE
102
{ACAD_REACTORS
330
BBB4
102
}
330
2
100
AcDbEntity
  8
ゴム
 48
3.0
100
AcDbCircle
 10
2000.67690815627
 20
1404.665796905609
 30
0.0
 40
4.5
100
AcDbArc
 50
0.0
 51
90.0
  0
ARC
  5
BBAF
102
{ACAD_REACTORS
330
BBB4
102
}
330
2
100
AcDbEntity
  8
ゴム
 48
3.0
100
AcDbCircle
 10
1999.976908156279
 20
1403.965796905605
 30
0.0
 40
3.2
100
AcDbArc
 50
0.0
 51
90.0
  0
LINE
  5
BBB0
102
{ACAD_REACTORS
330
BBB4
102
}
330
2
100
AcDbEntity
  8
ゴム
 48
3.0
100
AcDbLine
 10
2003.17690815628
 20
1379.165796905605
 30
0.0
 11
2005.17690815628
 21
1379.165796905605
 31
0.0
  0
LINE
  5
BBB1
102
{ACAD_REACTORS
330
BBB4
102
}
330
2
100
AcDbEntity
  8
ゴム
 48
3.0
100
AcDbLine
 10
2003.17690815628
 20
1379.165796905605
 30
0.0
 11
2003.17690815628
 21
1403.965796905605
 31
0.0
  0
LINE
  5
BBB2
102
{ACAD_REACTORS
330
BBB4
102
}
330
2
100
AcDbEntity
  8
ゴム
 48
3.0
100
AcDbLine
 10
2005.17690815628
 20
1379.165796905605
 30
0.0
 11
2005.17690815628
 21
1404.665796905604
 31
0.0
  0
LINE
  5
BBB3
102
{ACAD_REACTORS
330
BBB4
102
}
330
2
100
AcDbEntity
  8
ゴム
 48
3.0
100
AcDbLine
 10
1975.17690815628
 20
1407.165796905605
 30
0.0
 11
1975.17690815628
 21
1409.165796905604
 31
0.0
  0
LINE
  5
BBB5
102
{ACAD_REACTORS
330
BBBD
102
}
330
2
100
AcDbEntity
  8
ゴム
 48
3.0
100
AcDbLine
 10
2325.176908156258
 20
1407.165796905605
 30
0.0
 11
2300.376908156259
 21
1407.165796905604
 31
0.0
  0
LINE
  5
BBB6
102
{ACAD_REACTORS
330
BBBD
102
}
330
2
100
AcDbEntity
  8
ゴム
 48
3.0
100
AcDbLine
 10
2325.176908156258
 20
1409.165796905605
 30
0.0
 11
2299.676908156258
 21
1409.165796905604
 31
0.0
  0
ARC
  5
BBB7
102
{ACAD_REACTORS
330
BBBD
102
}
330
2
100
AcDbEntity
  8
ゴム
 48
3.0
100
AcDbCircle
 10
2299.676908156269
 20
1404.665796905608
 30
0.0
 40
4.5
100
AcDbArc
 50
90.0
 51
180.0
  0
ARC
  5
BBB8
102
{ACAD_REACTORS
330
BBBD
102
}
330
2
100
AcDbEntity
  8
ゴム
 48
3.0
100
AcDbCircle
 10
2300.376908156259
 20
1403.965796905604
 30
0.0
 40
3.2
100
AcDbArc
 50
90.0
 51
180.0
  0
LINE
  5
BBB9
102
{ACAD_REACTORS
330
BBBD
102
}
330
2
100
AcDbEntity
  8
ゴム
 48
3.0
100
AcDbLine
 10
2297.176908156258
 20
1379.165796905605
 30
0.0
 11
2295.176908156259
 21
1379.165796905605
 31
0.0
  0
LINE
  5
BBBA
102
{ACAD_REACTORS
330
BBBD
102
}
330
2
100
AcDbEntity
  8
ゴム
 48
3.0
100
AcDbLine
 10
2297.176908156258
 20
1379.165796905605
 30
0.0
 11
2297.176908156258
 21
1403.965796905604
 31
0.0
  0
LINE
  5
BBBB
102
{ACAD_REACTORS
330
BBBD
102
}
330
2
100
AcDbEntity
  8
ゴム
 48
3.0
100
AcDbLine
 10
2295.176908156259
 20
1379.165796905605
 30
0.0
 11
2295.176908156259
 21
1404.665796905604
 31
0.0
  0
LINE
  5
BBBC
102
{ACAD_REACTORS
330
BBBD
102
}
330
2
100
AcDbEntity
  8
ゴム
 48
3.0
100
AcDbLine
 10
2325.176908156258
 20
1407.165796905605
 30
0.0
 11
2325.176908156258
 21
1409.165796905604
 31
0.0
  0
MTEXT
  5
BD30
330
2
100
AcDbEntity
  8
寸法線
 48
3.0
100
AcDbMText
 10
501.6112439092485
 20
1451.565388015958
 30
0.0
 40
30.0
 41
0.0
 71
     7
 72
     1
  1
（SS540)
 73
     1
 44
1.0
1001
ACAD
1000
MTEXTBEGIN
1070
    73
1070
     1
1070
    44
1040
1.0
1070
    74
1070
     0
1000
MTEXTEND
  0
LINE
  5
BD54
330
2
100
AcDbEntity
  8
本体
 48
3.0
100
AcDbLine
 10
1797.676908156283
 20
685.6805151072838
 30
0.0
 11
2502.676908156284
 21
685.6805151072986
 31
0.0
  0
LINE
  5
BD55
330
2
100
AcDbEntity
  8
本体
 48
3.0
100
AcDbLine
 10
1797.676908156283
 20
745.6805151072837
 30
0.0
 11
2502.676908156284
 21
745.6805151072988
 31
0.0
  0
LINE
  5
BD56
330
2
100
AcDbEntity
  8
本体
 48
3.0
100
AcDbLine
 10
1797.676908156283
 20
745.6805151072837
 30
0.0
 11
1797.676908156283
 21
685.6805151072838
 31
0.0
  0
LINE
  5
BD57
330
2
100
AcDbEntity
  8
本体
 48
3.0
100
AcDbLine
 10
2242.676908156284
 20
745.6805151072837
 30
0.0
 11
2242.676908156284
 21
685.6805151072838
 31
0.0
  0
MTEXT
  5
BD58
330
2
100
AcDbEntity
  8
外枠
  6
Continuous
 48
100.0
370
     9
100
AcDbMText
 10
2109.702098055716
 20
727.3454302829702
 30
0.0
 40
25.0
 41
100.7596122118877
 71
     1
 72
     5
  1
SS540
 73
     1
 44
1.0
1001
ACAD
1000
MTEXTBEGIN
1070
    73
1070
     1
1070
    44
1040
1.0
1070
    74
1070
     0
1000
MTEXTEND
  0
LINE
  5
BD59
330
2
100
AcDbEntity
  8
本体
 48
3.0
100
AcDbLine
 10
1957.676908156327
 20
745.6805151072983
 30
0.0
 11
1957.676908156327
 21
685.6805151072838
 31
0.0
  0
MTEXT
  5
BD5A
330
2
100
AcDbEntity
  8
外枠
  6
Continuous
 48
100.0
370
     9
100
AcDbMText
 10
1829.513802508331
 20
729.8202183234312
 30
0.0
 40
25.0
 41
109.2913512849802
 71
     1
 72
     5
  1
主部材
 73
     1
 44
1.0
1001
ACAD
1000
MTEXTBEGIN
1070
    73
1070
     1
1070
    44
1040
1.0
1070
    74
1070
     0
1000
MTEXTEND
  0
MTEXT
  5
BD5B
330
2
100
AcDbEntity
  8
外枠
  6
Continuous
 48
100.0
370
     9
100
AcDbMText
 10
1969.732407288395
 20
729.8202183234312
 30
0.0
 40
25.0
 41
207.8885004816141
 71
     1
 72
     5
  1
ﾊｲﾃﾝ鋼
 73
     1
 44
1.0
1001
ACAD
1000
MTEXTBEGIN
1070
    73
1070
     1
1070
    44
1040
1.0
1070
    74
1070
     0
1000
MTEXTEND
  0
MTEXT
  5
BD5C
330
2
100
AcDbEntity
  8
外枠
  6
Continuous
 48
100.0
370
     9
100
AcDbMText
 10
2103.670177940577
 20
789.8202183234461
 30
0.0
 40
25.0
 41
1015.1375
 71
     1
 72
     5
  1
材料表
 73
     1
 44
1.0
1001
ACAD
1000
MTEXTBEGIN
1070
    73
1070
     1
1070
    44
1040
1.0
1070
    74
1070
     0
1000
MTEXTEND
  0
LINE
  5
BD5D
330
2
100
AcDbEntity
  8
本体
 48
3.0
100
AcDbLine
 10
2082.676908156285
 20
745.6805151072983
 30
0.0
 11
2082.676908156285
 21
685.6805151072838
 31
0.0
  0
LINE
  5
BD5E
330
2
100
AcDbEntity
  8
外枠
 48
3.0
100
AcDbLine
 10
1906.85718062317
 20
860.131210747269
 30
0.0
 11
2393.496635689398
 21
860.131210747269
 31
0.0
  0
LINE
  5
BD5F
330
2
100
AcDbEntity
  8
本体
 48
3.0
100
AcDbLine
 10
2502.676908156284
 20
745.6805151072837
 30
0.0
 11
2502.676908156284
 21
685.6805151072838
 31
0.0
  0
MTEXT
  5
BD60
330
2
100
AcDbEntity
  8
外枠
  6
Continuous
 48
100.0
370
     9
100
AcDbMText
 10
2269.702098055715
 20
727.3454302829557
 30
0.0
 40
25.0
 41
237.5565498464996
 71
     1
 72
     5
  1
HGIB5\U+00D73\U+00D732
 73
     1
 44
1.0
1001
ACAD
1000
MTEXTBEGIN
1070
    73
1070
     1
1070
    44
1040
1.0
1070
    74
1070
     0
1000
MTEXTEND
  0
LINE
  5
BD61
330
2
100
AcDbEntity
  8
本体
 48
3.0
100
AcDbLine
 10
1797.676908156285
 20
625.6805151072837
 30
0.0
 11
2502.676908156284
 21
625.6805151072986
 31
0.0
  0
LINE
  5
BD62
330
2
100
AcDbEntity
  8
本体
 48
3.0
100
AcDbLine
 10
2242.676908156285
 20
685.6805151072838
 30
0.0
 11
2242.676908156285
 21
625.6805151072837
 31
0.0
  0
MTEXT
  5
BD63
330
2
100
AcDbEntity
  8
外枠
  6
Continuous
 48
100.0
370
     9
100
AcDbMText
 10
2109.702098055717
 20
667.3454302829703
 30
0.0
 40
25.0
 41
100.7596122118877
 71
     1
 72
     5
  1
SPFH590
 73
     1
 44
1.0
1001
ACAD
1000
MTEXTBEGIN
1070
    73
1070
     1
1070
    44
1040
1.0
1070
    74
1070
     0
1000
MTEXTEND
  0
LINE
  5
BD64
330
2
100
AcDbEntity
  8
本体
 48
3.0
100
AcDbLine
 10
1957.676908156328
 20
685.6805151072983
 30
0.0
 11
1957.676908156328
 21
625.6805151072837
 31
0.0
  0
MTEXT
  5
BD65
330
2
100
AcDbEntity
  8
外枠
  6
Continuous
 48
100.0
370
     9
100
AcDbMText
 10
1811.039115203736
 20
669.8202183234314
 30
0.0
 40
25.0
 41
132.9946967574681
 71
     1
 72
     5
  1
アングル
 73
     1
 44
1.0
1001
ACAD
1000
MTEXTBEGIN
1070
    73
1070
     1
1070
    44
1040
1.0
1070
    74
1070
     0
1000
MTEXTEND
  0
MTEXT
  5
BD66
330
2
100
AcDbEntity
  8
外枠
  6
Continuous
 48
100.0
370
     9
100
AcDbMText
 10
1969.732407288396
 20
669.8202183234314
 30
0.0
 40
25.0
 41
207.8885004816141
 71
     1
 72
     5
  1
ﾊｲﾃﾝ鋼
 73
     1
 44
1.0
1001
ACAD
1000
MTEXTBEGIN
1070
    73
1070
     1
1070
    44
1040
1.0
1070
    74
1070
     0
1000
MTEXTEND
  0
LINE
  5
BD67
330
2
100
AcDbEntity
  8
本体
 48
3.0
100
AcDbLine
 10
2082.676908156285
 20
685.6805151072983
 30
0.0
 11
2082.676908156285
 21
625.6805151072837
 31
0.0
  0
MTEXT
  5
BD68
330
2
100
AcDbEntity
  8
外枠
  6
Continuous
 48
100.0
370
     9
100
AcDbMText
 10
2269.702098055716
 20
667.3454302829558
 30
0.0
 40
25.0
 41
237.5565498464996
 71
     1
 72
     5
  1
L3\U+00D740\U+00D740
 73
     1
 44
1.0
1001
ACAD
1000
MTEXTBEGIN
1070
    73
1070
     1
1070
    44
1040
1.0
1070
    74
1070
     0
1000
MTEXTEND
  0
LINE
  5
BD69
330
2
100
AcDbEntity
  8
本体
 48
3.0
100
AcDbLine
 10
1797.676908156285
 20
685.6805151072983
 30
0.0
 11
1797.676908156285
 21
625.6805151072983
 31
0.0
  0
LINE
  5
BD6A
330
2
100
AcDbEntity
  8
本体
 48
3.0
100
AcDbLine
 10
2502.676908156285
 20
685.6805151072983
 30
0.0
 11
2502.676908156285
 21
625.6805151072983
 31
0.0
  0
MTEXT
  5
BD6F
330
2
100
AcDbEntity
  8
外枠
  6
Continuous
 48
100.0
370
     9
100
AcDbMText
 10
2073.802148701025
 20
896.6676806715181
 30
0.0
 40
30.0
 41
299.6031884460488
 71
     1
 72
     5
  1
\A1;CNUP32-30
 73
     1
 44
1.0
1001
ACAD
1000
MTEXTBEGIN
1070
    73
1070
     1
1070
    44
1040
1.0
1070
    74
1070
     0
1000
MTEXTEND
  0
MTEXT
  5
BD70
330
2
100
AcDbEntity
  8
外枠
  6
Continuous
 48
100.0
370
     9
100
AcDbMText
 10
1906.905511095196
 20
947.3008127068963
 30
0.0
 40
26.0
 41
499.4381424217889
 71
     1
 72
     5
  1
ハイテン鋼製グレーチング T-14
 73
     1
 44
1.0
1001
ACAD
1000
MTEXTBEGIN
1070
    73
1070
     1
1070
    44
1040
1.0
1070
    74
1070
     0
1000
MTEXTEND
  0
LINE
  5
BD71
330
2
100
AcDbEntity
  8
外枠
 48
3.0
100
AcDbLine
 10
1900.116736650343
 20
910.131210747269
 30
0.0
 11
2400.237079662225
 21
910.131210747269
 31
0.0
  0
LINE
  5
C552
330
2
100
AcDbEntity
  8
本体
  6
Continuous
100
AcDbLine
 10
1394.999999999999
 20
569.2573057865825
 30
0.0
 11
399.9999999999992
 21
569.2573057865825
 31
0.0
  0
LINE
  5
C554
330
2
100
AcDbEntity
  8
本体
  6
Continuous
100
AcDbLine
 10
1394.999999999999
 20
563.2573057865823
 30
0.0
 11
399.9999999999992
 21
563.2573057865823
 31
0.0
  0
LINE
  5
C556
330
2
100
AcDbEntity
  8
本体
  6
Continuous
100
AcDbLine
 10
1394.999999999999
 20
669.2573057865825
 30
0.0
 11
399.9999999999992
 21
669.2573057865825
 31
0.0
  0
LINE
  5
C557
330
2
100
AcDbEntity
  8
本体
  6
Continuous
100
AcDbLine
 10
1394.999999999999
 20
663.2573057865823
 30
0.0
 11
399.9999999999992
 21
663.2573057865823
 31
0.0
  0
LINE
  5
C558
330
2
100
AcDbEntity
  8
本体
  6
Continuous
100
AcDbLine
 10
1394.999999999999
 20
613.2573057865823
 30
0.0
 11
399.9999999999992
 21
613.2573057865823
 31
0.0
  0
LINE
  5
C559
330
2
100
AcDbEntity
  8
本体
  6
Continuous
100
AcDbLine
 10
1394.999999999999
 20
619.2573057865825
 30
0.0
 11
399.9999999999992
 21
619.2573057865825
 31
0.0
  0
LINE
  5
C55C
330
2
100
AcDbEntity
  8
本体
  6
Continuous
100
AcDbLine
 10
1394.999999999999
 20
719.2573057865825
 30
0.0
 11
399.9999999999992
 21
719.2573057865825
 31
0.0
  0
LINE
  5
C55D
330
2
100
AcDbEntity
  8
本体
  6
Continuous
100
AcDbLine
 10
1394.999999999999
 20
713.2573057865823
 30
0.0
 11
399.9999999999992
 21
713.2573057865823
 31
0.0
  0
LINE
  5
C55F
330
2
100
AcDbEntity
  8
嵩上断面
  6
HIDDEN
 48
3.0
100
AcDbLine
 10
1394.999999999999
 20
521.2573057865828
 30
0.0
 11
399.9999999999992
 21
521.2573057865828
 31
0.0
  0
LINE
  5
C560
330
2
100
AcDbEntity
  8
嵩上断面
  6
HIDDEN
 48
3.0
100
AcDbLine
 10
1394.999999999999
 20
811.2573057865825
 30
0.0
 11
399.9999999999992
 21
811.2573057865825
 31
0.0
  0
LINE
  5
C561
330
2
100
AcDbEntity
  8
嵩上断面
 48
3.0
100
AcDbLine
 10
399.9999999999992
 20
484.2573057865829
 30
0.0
 11
1394.999999999999
 21
484.2573057865829
 31
0.0
  0
LINE
  5
C562
330
2
100
AcDbEntity
  8
嵩上断面
 48
3.0
100
AcDbLine
 10
399.9999999999992
 20
524.2573057865828
 30
0.0
 11
1394.999999999999
 21
524.2573057865828
 31
0.0
  0
LINE
  5
C563
330
2
100
AcDbEntity
  8
嵩上断面
 48
3.0
100
AcDbLine
 10
399.9999999999992
 20
808.257305786582
 30
0.0
 11
1394.999999999999
 21
808.257305786582
 31
0.0
  0
LINE
  5
C564
330
2
100
AcDbEntity
  8
嵩上断面
 48
3.0
100
AcDbLine
 10
399.9999999999992
 20
848.2573057865829
 30
0.0
 11
1394.999999999999
 21
848.2573057865829
 31
0.0
  0
LINE
  5
C565
330
2
100
AcDbEntity
  8
本体
  6
Continuous
100
AcDbLine
 10
1394.999999999999
 20
763.2573057865823
 30
0.0
 11
399.9999999999992
 21
763.2573057865823
 31
0.0
  0
LINE
  5
C566
330
2
100
AcDbEntity
  8
本体
  6
Continuous
100
AcDbLine
 10
1394.999999999999
 20
769.2573057865825
 30
0.0
 11
399.9999999999992
 21
769.2573057865825
 31
0.0
  0
LINE
  5
C570
330
2
100
AcDbEntity
  8
本体
  6
Continuous
100
AcDbLine
 10
404.999999999999
 20
613.2573057865823
 30
0.0
 11
404.999999999999
 21
569.2573057865825
 31
0.0
  0
LINE
  5
C571
330
2
100
AcDbEntity
  8
本体
  6
Continuous
100
AcDbLine
 10
399.9999999999992
 20
613.2573057865823
 30
0.0
 11
399.9999999999992
 21
569.2573057865825
 31
0.0
  0
LINE
  5
C572
330
2
100
AcDbEntity
  8
嵩上断面
  6
Continuous
100
AcDbLine
 10
399.9999999999992
 20
484.2573057865829
 30
0.0
 11
399.9999999999992
 21
524.257305786582
 31
0.0
  0
LINE
  5
C573
330
2
100
AcDbEntity
  8
本体
  6
Continuous
100
AcDbLine
 10
399.9999999999992
 20
563.2573057865823
 30
0.0
 11
429.999999999999
 21
569.2573057865825
 31
0.0
  0
LINE
  5
C574
330
2
100
AcDbEntity
  8
本体
  6
Continuous
100
AcDbLine
 10
399.9999999999992
 20
563.2573057865823
 30
0.0
 11
399.9999999999992
 21
524.257305786582
 31
0.0
  0
LINE
  5
C575
330
2
100
AcDbEntity
  8
本体
  6
Continuous
100
AcDbLine
 10
404.999999999999
 20
563.2573057865823
 30
0.0
 11
404.999999999999
 21
524.257305786582
 31
0.0
  0
LINE
  5
C576
330
2
100
AcDbEntity
  8
エンボス
  6
Continuous
100
AcDbLine
 10
399.9999999999992
 20
530.7688599814614
 30
0.0
 11
404.999999999999
 21
532.7688599814614
 31
0.0
  0
LINE
  5
C577
330
2
100
AcDbEntity
  8
エンボス
  6
Continuous
100
AcDbLine
 10
404.999999999999
 20
525.568859981461
 30
0.0
 11
399.9999999999992
 21
527.7688599814614
 31
0.0
  0
LINE
  5
C578
330
2
100
AcDbEntity
  8
本体
  6
Continuous
100
AcDbLine
 10
399.9999999999992
 20
569.2573057865825
 30
0.0
 11
399.9999999999992
 21
563.2573057865823
 31
0.0
  0
LINE
  5
C579
330
2
100
AcDbEntity
  8
エンボス
  6
Continuous
100
AcDbLine
 10
404.999999999999
 20
572.9448332533616
 30
0.0
 11
399.9999999999992
 21
574.9448332533614
 31
0.0
  0
LINE
  5
C57A
330
2
100
AcDbEntity
  8
エンボス
  6
Continuous
100
AcDbLine
 10
404.999999999999
 20
553.7688599814614
 30
0.0
 11
399.9999999999992
 21
555.7688599814614
 31
0.0
  0
LINE
  5
C57B
330
2
100
AcDbEntity
  8
エンボス
  6
Continuous
100
AcDbLine
 10
404.999999999999
 20
541.7688599814614
 30
0.0
 11
399.9999999999992
 21
539.7688599814614
 31
0.0
  0
LINE
  5
C57C
330
2
100
AcDbEntity
  8
エンボス
  6
Continuous
100
AcDbLine
 10
399.9999999999992
 20
546.7688599814614
 30
0.0
 11
404.999999999999
 21
544.7688599814614
 31
0.0
  0
LINE
  5
C57D
330
2
100
AcDbEntity
  8
エンボス
  6
Continuous
100
AcDbLine
 10
399.9999999999992
 20
558.7688599814614
 30
0.0
 11
404.999999999999
 21
560.7688599814614
 31
0.0
  0
LINE
  5
C595
330
2
100
AcDbEntity
  8
本体
  6
Continuous
100
AcDbLine
 10
399.9999999999992
 20
763.2573057865823
 30
0.0
 11
399.9999999999992
 21
719.2573057865825
 31
0.0
  0
LINE
  5
C596
330
2
100
AcDbEntity
  8
本体
  6
Continuous
100
AcDbLine
 10
404.999999999999
 20
763.2573057865823
 30
0.0
 11
404.999999999999
 21
719.2573057865825
 31
0.0
  0
LINE
  5
C59B
330
2
100
AcDbEntity
  8
本体
  6
Continuous
100
AcDbLine
 10
399.9999999999992
 20
663.2573057865823
 30
0.0
 11
399.9999999999992
 21
619.2573057865825
 31
0.0
  0
LINE
  5
C59C
330
2
100
AcDbEntity
  8
本体
  6
Continuous
100
AcDbLine
 10
404.999999999999
 20
663.2573057865823
 30
0.0
 11
404.999999999999
 21
619.2573057865825
 31
0.0
  0
LINE
  5
C59D
330
2
100
AcDbEntity
  8
本体
  6
Continuous
100
AcDbLine
 10
399.9999999999992
 20
613.2573057865823
 30
0.0
 11
429.999999999999
 21
619.2573057865825
 31
0.0
  0
LINE
  5
C59E
330
2
100
AcDbEntity
  8
本体
  6
Continuous
100
AcDbLine
 10
399.9999999999992
 20
619.2573057865825
 30
0.0
 11
399.9999999999992
 21
613.2573057865823
 31
0.0
  0
LINE
  5
C59F
330
2
100
AcDbEntity
  8
エンボス
  6
Continuous
100
AcDbLine
 10
399.9999999999992
 20
605.9448332533616
 30
0.0
 11
404.999999999999
 21
607.9448332533615
 31
0.0
  0
LINE
  5
C5A0
330
2
100
AcDbEntity
  8
エンボス
  6
Continuous
100
AcDbLine
 10
404.999999999999
 20
600.9448332533614
 30
0.0
 11
399.9999999999992
 21
602.9448332533616
 31
0.0
  0
LINE
  5
C5A1
330
2
100
AcDbEntity
  8
エンボス
  6
Continuous
100
AcDbLine
 10
399.9999999999992
 20
577.9448332533616
 30
0.0
 11
404.999999999999
 21
579.9448332533614
 31
0.0
  0
LINE
  5
C5A2
330
2
100
AcDbEntity
  8
エンボス
  6
Continuous
100
AcDbLine
 10
404.999999999999
 20
588.9448332533616
 30
0.0
 11
399.9999999999992
 21
586.9448332533615
 31
0.0
  0
LINE
  5
C5A3
330
2
100
AcDbEntity
  8
エンボス
  6
Continuous
100
AcDbLine
 10
399.9999999999992
 20
593.9448332533616
 30
0.0
 11
404.999999999999
 21
591.9448332533614
 31
0.0
  0
LINE
  5
C5A4
330
2
100
AcDbEntity
  8
エンボス
  6
Continuous
100
AcDbLine
 10
399.9999999999992
 20
643.9448332533616
 30
0.0
 11
404.999999999999
 21
641.9448332533614
 31
0.0
  0
LINE
  5
C5A5
330
2
100
AcDbEntity
  8
エンボス
  6
Continuous
100
AcDbLine
 10
404.999999999999
 20
638.9448332533616
 30
0.0
 11
399.9999999999992
 21
636.9448332533615
 31
0.0
  0
LINE
  5
C5A6
330
2
100
AcDbEntity
  8
エンボス
  6
Continuous
100
AcDbLine
 10
404.999999999999
 20
650.9448332533614
 30
0.0
 11
399.9999999999992
 21
652.9448332533616
 31
0.0
  0
LINE
  5
C5A7
330
2
100
AcDbEntity
  8
エンボス
  6
Continuous
100
AcDbLine
 10
399.9999999999992
 20
627.9448332533616
 30
0.0
 11
404.999999999999
 21
629.9448332533614
 31
0.0
  0
LINE
  5
C5A8
330
2
100
AcDbEntity
  8
エンボス
  6
Continuous
100
AcDbLine
 10
404.999999999999
 20
622.9448332533616
 30
0.0
 11
399.9999999999992
 21
624.9448332533614
 31
0.0
  0
LINE
  5
C5BE
330
2
100
AcDbEntity
  8
本体
  6
Continuous
100
AcDbLine
 10
399.9999999999992
 20
663.2573057865823
 30
0.0
 11
429.999999999999
 21
669.2573057865825
 31
0.0
  0
LINE
  5
C5BF
330
2
100
AcDbEntity
  8
本体
  6
Continuous
100
AcDbLine
 10
399.9999999999992
 20
713.2573057865823
 30
0.0
 11
429.999999999999
 21
719.2573057865825
 31
0.0
  0
LINE
  5
C5C0
330
2
100
AcDbEntity
  8
エンボス
  6
Continuous
100
AcDbLine
 10
399.9999999999992
 20
693.9448332533617
 30
0.0
 11
404.999999999999
 21
691.9448332533614
 31
0.0
  0
LINE
  5
C5C1
330
2
100
AcDbEntity
  8
本体
  6
Continuous
100
AcDbLine
 10
399.9999999999992
 20
713.2573057865823
 30
0.0
 11
399.9999999999992
 21
669.2573057865825
 31
0.0
  0
LINE
  5
C5C2
330
2
100
AcDbEntity
  8
本体
  6
Continuous
100
AcDbLine
 10
404.999999999999
 20
713.2573057865823
 30
0.0
 11
404.999999999999
 21
669.2573057865825
 31
0.0
  0
LINE
  5
C5C3
330
2
100
AcDbEntity
  8
本体
  6
Continuous
100
AcDbLine
 10
399.9999999999992
 20
669.2573057865825
 30
0.0
 11
399.9999999999992
 21
663.2573057865823
 31
0.0
  0
LINE
  5
C5C4
330
2
100
AcDbEntity
  8
エンボス
  6
Continuous
100
AcDbLine
 10
399.9999999999992
 20
655.9448332533616
 30
0.0
 11
404.999999999999
 21
657.9448332533615
 31
0.0
  0
LINE
  5
C5C5
330
2
100
AcDbEntity
  8
エンボス
  6
Continuous
100
AcDbLine
 10
404.999999999999
 20
688.9448332533617
 30
0.0
 11
399.9999999999992
 21
686.9448332533615
 31
0.0
  0
LINE
  5
C5C6
330
2
100
AcDbEntity
  8
エンボス
  6
Continuous
100
AcDbLine
 10
399.9999999999992
 20
677.9448332533616
 30
0.0
 11
404.999999999999
 21
679.9448332533614
 31
0.0
  0
LINE
  5
C5C7
330
2
100
AcDbEntity
  8
エンボス
  6
Continuous
100
AcDbLine
 10
404.999999999999
 20
672.9448332533616
 30
0.0
 11
399.9999999999992
 21
674.9448332533614
 31
0.0
  0
LINE
  5
C5C8
330
2
100
AcDbEntity
  8
本体
  6
Continuous
100
AcDbLine
 10
399.9999999999992
 20
719.2573057865825
 30
0.0
 11
399.9999999999992
 21
713.2573057865823
 31
0.0
  0
LINE
  5
C5C9
330
2
100
AcDbEntity
  8
エンボス
  6
Continuous
100
AcDbLine
 10
404.999999999999
 20
700.9448332533614
 30
0.0
 11
399.9999999999992
 21
702.9448332533617
 31
0.0
  0
LINE
  5
C5CA
330
2
100
AcDbEntity
  8
エンボス
  6
Continuous
100
AcDbLine
 10
399.9999999999992
 20
705.9448332533617
 30
0.0
 11
404.999999999999
 21
707.9448332533615
 31
0.0
  0
LINE
  5
C5CB
330
2
100
AcDbEntity
  8
エンボス
  6
Continuous
100
AcDbLine
 10
404.999999999999
 20
722.9448332533617
 30
0.0
 11
399.9999999999992
 21
724.9448332533614
 31
0.0
  0
LINE
  5
C5CC
330
2
100
AcDbEntity
  8
エンボス
  6
Continuous
100
AcDbLine
 10
399.9999999999992
 20
727.9448332533617
 30
0.0
 11
404.999999999999
 21
729.9448332533614
 31
0.0
  0
LINE
  5
C5E5
330
2
100
AcDbEntity
  8
嵩上断面
  6
Continuous
100
AcDbLine
 10
399.9999999999992
 20
848.2573057865829
 30
0.0
 11
399.9999999999992
 21
808.2573057865829
 31
0.0
  0
LINE
  5
C5E6
330
2
100
AcDbEntity
  8
本体
  6
Continuous
100
AcDbLine
 10
399.9999999999992
 20
763.2573057865823
 30
0.0
 11
429.999999999999
 21
769.2573057865825
 31
0.0
  0
LINE
  5
C5E7
330
2
100
AcDbEntity
  8
本体
  6
Continuous
100
AcDbLine
 10
404.999999999999
 20
808.2573057865829
 30
0.0
 11
404.999999999999
 21
769.2573057865825
 31
0.0
  0
LINE
  5
C5E8
330
2
100
AcDbEntity
  8
本体
  6
Continuous
100
AcDbLine
 10
399.9999999999992
 20
808.2573057865829
 30
0.0
 11
399.9999999999992
 21
769.2573057865825
 31
0.0
  0
LINE
  5
C5E9
330
2
100
AcDbEntity
  8
エンボス
  6
Continuous
100
AcDbLine
 10
399.9999999999992
 20
755.9448332533617
 30
0.0
 11
404.999999999999
 21
757.9448332533615
 31
0.0
  0
LINE
  5
C5EA
330
2
100
AcDbEntity
  8
本体
  6
Continuous
100
AcDbLine
 10
399.9999999999992
 20
769.2573057865825
 30
0.0
 11
399.9999999999992
 21
763.2573057865823
 31
0.0
  0
LINE
  5
C5EB
330
2
100
AcDbEntity
  8
エンボス
  6
Continuous
100
AcDbLine
 10
404.999999999999
 20
750.9448332533614
 30
0.0
 11
399.9999999999992
 21
752.9448332533617
 31
0.0
  0
LINE
  5
C5EC
330
2
100
AcDbEntity
  8
エンボス
  6
Continuous
100
AcDbLine
 10
404.999999999999
 20
738.9448332533617
 30
0.0
 11
399.9999999999992
 21
736.9448332533615
 31
0.0
  0
LINE
  5
C5ED
330
2
100
AcDbEntity
  8
エンボス
  6
Continuous
100
AcDbLine
 10
399.9999999999992
 20
743.9448332533617
 30
0.0
 11
404.999999999999
 21
741.9448332533614
 31
0.0
  0
LINE
  5
C5EE
330
2
100
AcDbEntity
  8
嵩上断面
  6
Continuous
100
AcDbLine
 10
399.9999999999992
 20
804.1473674617876
 30
0.0
 11
404.999999999999
 21
806.3473674617878
 31
0.0
  0
LINE
  5
C5EF
330
2
100
AcDbEntity
  8
エンボス
  6
Continuous
100
AcDbLine
 10
404.999999999999
 20
799.1473674617877
 30
0.0
 11
399.9999999999992
 21
801.1473674617876
 31
0.0
  0
LINE
  5
C5F0
330
2
100
AcDbEntity
  8
エンボス
  6
Continuous
100
AcDbLine
 10
399.9999999999992
 20
792.1473674617876
 30
0.0
 11
404.999999999999
 21
790.1473674617876
 31
0.0
  0
LINE
  5
C5F1
330
2
100
AcDbEntity
  8
エンボス
  6
Continuous
100
AcDbLine
 10
404.999999999999
 20
787.1473674617877
 30
0.0
 11
399.9999999999992
 21
785.1473674617876
 31
0.0
  0
LINE
  5
C5F2
330
2
100
AcDbEntity
  8
エンボス
  6
Continuous
100
AcDbLine
 10
404.999999999999
 20
771.1473674617876
 30
0.0
 11
399.9999999999992
 21
773.1473674617876
 31
0.0
  0
LINE
  5
C5F3
330
2
100
AcDbEntity
  8
エンボス
  6
Continuous
100
AcDbLine
 10
399.9999999999992
 20
776.1473674617876
 30
0.0
 11
404.999999999999
 21
778.1473674617877
 31
0.0
  0
LEADER
  5
C60D
330
2
100
AcDbEntity
  8
寸法線
 48
3.0
100
AcDbLeader
  3
ISO-25
 73
     0
 74
     0
 75
     1
 40
30.0
 41
191.4213197969543
 76
     3
 10
752.0303376765532
 20
844.8722479751605
 30
0.0
 10
791.7933157756179
 20
932.9865487302614
 30
0.0
 10
806.7933157756179
 20
932.9865487302614
 30
0.0
340
C60E
1001
ACAD
1000
DSTYLE
1002
{
1070
   147
1040
0.5
1070
    77
1070
     1
1002
}
  0
MTEXT
  5
C60E
102
{ACAD_REACTORS
330
C60D
102
}
330
2
100
AcDbEntity
  8
寸法線
 48
3.0
100
AcDbMText
 10
811.7933157756176
 20
937.9865487302613
 30
0.0
 40
30.0
 41
0.0
 71
     7
 72
     1
  1
L3\U+00D740\U+00D740
 73
     1
 44
1.0
1001
ACAD
1000
MTEXTBEGIN
1070
    73
1070
     1
1070
    44
1040
1.0
1070
    74
1070
     0
1000
MTEXTEND
  0
LINE
  5
CC0D
330
2
100
AcDbEntity
  8
本体
  6
Continuous
100
AcDbLine
 10
1389.999999999999
 20
613.2573057865823
 30
0.0
 11
1389.999999999999
 21
569.2573057865825
 31
0.0
  0
LINE
  5
CC0E
330
2
100
AcDbEntity
  8
本体
  6
Continuous
100
AcDbLine
 10
1394.999999999999
 20
613.2573057865823
 30
0.0
 11
1394.999999999999
 21
569.2573057865825
 31
0.0
  0
LINE
  5
CC0F
330
2
100
AcDbEntity
  8
嵩上断面
  6
Continuous
100
AcDbLine
 10
1394.999999999999
 20
484.2573057865829
 30
0.0
 11
1394.999999999999
 21
524.257305786582
 31
0.0
  0
LINE
  5
CC10
330
2
100
AcDbEntity
  8
本体
  6
Continuous
100
AcDbLine
 10
1394.999999999999
 20
563.2573057865823
 30
0.0
 11
1394.999999999999
 21
524.257305786582
 31
0.0
  0
LINE
  5
CC11
330
2
100
AcDbEntity
  8
本体
  6
Continuous
100
AcDbLine
 10
1389.999999999999
 20
563.2573057865823
 30
0.0
 11
1389.999999999999
 21
524.257305786582
 31
0.0
  0
LINE
  5
CC16
330
2
100
AcDbEntity
  8
エンボス
  6
Continuous
100
AcDbLine
 10
1389.999999999999
 20
530.7688599814614
 30
0.0
 11
1394.999999999999
 21
532.7688599814614
 31
0.0
  0
LINE
  5
CC17
330
2
100
AcDbEntity
  8
エンボス
  6
Continuous
100
AcDbLine
 10
1394.999999999999
 20
525.568859981461
 30
0.0
 11
1389.999999999999
 21
527.7688599814614
 31
0.0
  0
LINE
  5
CC1E
330
2
100
AcDbEntity
  8
本体
  6
Continuous
100
AcDbLine
 10
1389.999999999999
 20
563.2573057865823
 30
0.0
 11
1394.999999999999
 21
564.2573057865823
 31
0.0
  0
LINE
  5
CC1F
330
2
100
AcDbEntity
  8
本体
  6
Continuous
100
AcDbLine
 10
1394.999999999999
 20
569.2573057865825
 30
0.0
 11
1394.999999999999
 21
563.2573057865823
 31
0.0
  0
LINE
  5
CC20
330
2
100
AcDbEntity
  8
エンボス
  6
Continuous
100
AcDbLine
 10
1394.999999999999
 20
572.9448332533616
 30
0.0
 11
1389.999999999999
 21
574.9448332533614
 31
0.0
  0
LINE
  5
CC21
330
2
100
AcDbEntity
  8
エンボス
  6
Continuous
100
AcDbLine
 10
1394.999999999999
 20
553.7688599814614
 30
0.0
 11
1389.999999999999
 21
555.7688599814614
 31
0.0
  0
LINE
  5
CC22
330
2
100
AcDbEntity
  8
エンボス
  6
Continuous
100
AcDbLine
 10
1394.999999999999
 20
541.7688599814614
 30
0.0
 11
1389.999999999999
 21
539.7688599814614
 31
0.0
  0
LINE
  5
CC23
330
2
100
AcDbEntity
  8
エンボス
  6
Continuous
100
AcDbLine
 10
1389.999999999999
 20
546.7688599814614
 30
0.0
 11
1394.999999999999
 21
544.7688599814614
 31
0.0
  0
LINE
  5
CC24
330
2
100
AcDbEntity
  8
エンボス
  6
Continuous
100
AcDbLine
 10
1389.999999999999
 20
558.7688599814614
 30
0.0
 11
1394.999999999999
 21
560.7688599814614
 31
0.0
  0
LINE
  5
CC25
330
2
100
AcDbEntity
  8
本体
  6
Continuous
100
AcDbLine
 10
1394.999999999999
 20
763.2573057865823
 30
0.0
 11
1394.999999999999
 21
719.2573057865825
 31
0.0
  0
LINE
  5
CC26
330
2
100
AcDbEntity
  8
本体
  6
Continuous
100
AcDbLine
 10
1389.999999999999
 20
763.2573057865823
 30
0.0
 11
1389.999999999999
 21
719.2573057865825
 31
0.0
  0
LINE
  5
CC29
330
2
100
AcDbEntity
  8
本体
  6
Continuous
100
AcDbLine
 10
1394.999999999999
 20
663.2573057865823
 30
0.0
 11
1394.999999999999
 21
619.2573057865825
 31
0.0
  0
LINE
  5
CC2A
330
2
100
AcDbEntity
  8
本体
  6
Continuous
100
AcDbLine
 10
1389.999999999999
 20
663.2573057865823
 30
0.0
 11
1389.999999999999
 21
619.2573057865825
 31
0.0
  0
LINE
  5
CC2D
330
2
100
AcDbEntity
  8
本体
  6
Continuous
100
AcDbLine
 10
1394.999999999999
 20
619.2573057865825
 30
0.0
 11
1394.999999999999
 21
613.2573057865823
 31
0.0
  0
LINE
  5
CC34
330
2
100
AcDbEntity
  8
エンボス
  6
Continuous
100
AcDbLine
 10
1389.999999999999
 20
605.9448332533616
 30
0.0
 11
1394.999999999999
 21
607.9448332533615
 31
0.0
  0
LINE
  5
CC35
330
2
100
AcDbEntity
  8
エンボス
  6
Continuous
100
AcDbLine
 10
1394.999999999999
 20
600.9448332533614
 30
0.0
 11
1389.999999999999
 21
602.9448332533616
 31
0.0
  0
LINE
  5
CC36
330
2
100
AcDbEntity
  8
本体
  6
Continuous
100
AcDbLine
 10
1389.999999999999
 20
613.2573057865823
 30
0.0
 11
1394.999999999999
 21
614.2573057865823
 31
0.0
  0
LINE
  5
CC37
330
2
100
AcDbEntity
  8
エンボス
  6
Continuous
100
AcDbLine
 10
1389.999999999999
 20
577.9448332533616
 30
0.0
 11
1394.999999999999
 21
579.9448332533614
 31
0.0
  0
LINE
  5
CC38
330
2
100
AcDbEntity
  8
エンボス
  6
Continuous
100
AcDbLine
 10
1394.999999999999
 20
588.9448332533616
 30
0.0
 11
1389.999999999999
 21
586.9448332533615
 31
0.0
  0
LINE
  5
CC39
330
2
100
AcDbEntity
  8
エンボス
  6
Continuous
100
AcDbLine
 10
1389.999999999999
 20
593.9448332533616
 30
0.0
 11
1394.999999999999
 21
591.9448332533614
 31
0.0
  0
LINE
  5
CC3F
330
2
100
AcDbEntity
  8
エンボス
  6
Continuous
100
AcDbLine
 10
1389.999999999999
 20
643.9448332533616
 30
0.0
 11
1394.999999999999
 21
641.9448332533614
 31
0.0
  0
LINE
  5
CC40
330
2
100
AcDbEntity
  8
エンボス
  6
Continuous
100
AcDbLine
 10
1394.999999999999
 20
638.9448332533616
 30
0.0
 11
1389.999999999999
 21
636.9448332533615
 31
0.0
  0
LINE
  5
CC41
330
2
100
AcDbEntity
  8
エンボス
  6
Continuous
100
AcDbLine
 10
1394.999999999999
 20
650.9448332533614
 30
0.0
 11
1389.999999999999
 21
652.9448332533616
 31
0.0
  0
LINE
  5
CC42
330
2
100
AcDbEntity
  8
エンボス
  6
Continuous
100
AcDbLine
 10
1389.999999999999
 20
627.9448332533616
 30
0.0
 11
1394.999999999999
 21
629.9448332533614
 31
0.0
  0
LINE
  5
CC43
330
2
100
AcDbEntity
  8
エンボス
  6
Continuous
100
AcDbLine
 10
1394.999999999999
 20
622.9448332533616
 30
0.0
 11
1389.999999999999
 21
624.9448332533614
 31
0.0
  0
LINE
  5
CC44
330
2
100
AcDbEntity
  8
エンボス
  6
Continuous
100
AcDbLine
 10
1389.999999999999
 20
693.9448332533617
 30
0.0
 11
1394.999999999999
 21
691.9448332533614
 31
0.0
  0
LINE
  5
CC46
330
2
100
AcDbEntity
  8
本体
  6
Continuous
100
AcDbLine
 10
1394.999999999999
 20
713.2573057865823
 30
0.0
 11
1394.999999999999
 21
669.2573057865825
 31
0.0
  0
LINE
  5
CC47
330
2
100
AcDbEntity
  8
本体
  6
Continuous
100
AcDbLine
 10
1389.999999999999
 20
713.2573057865823
 30
0.0
 11
1389.999999999999
 21
669.2573057865825
 31
0.0
  0
LINE
  5
CC4F
330
2
100
AcDbEntity
  8
本体
  6
Continuous
100
AcDbLine
 10
1394.999999999999
 20
669.2573057865825
 30
0.0
 11
1394.999999999999
 21
663.2573057865823
 31
0.0
  0
LINE
  5
CC50
330
2
100
AcDbEntity
  8
本体
  6
Continuous
100
AcDbLine
 10
1389.999999999999
 20
663.2573057865823
 30
0.0
 11
1394.999999999999
 21
664.2573057865823
 31
0.0
  0
LINE
  5
CC51
330
2
100
AcDbEntity
  8
エンボス
  6
Continuous
100
AcDbLine
 10
1389.999999999999
 20
655.9448332533616
 30
0.0
 11
1394.999999999999
 21
657.9448332533615
 31
0.0
  0
LINE
  5
CC52
330
2
100
AcDbEntity
  8
エンボス
  6
Continuous
100
AcDbLine
 10
1394.999999999999
 20
688.9448332533617
 30
0.0
 11
1389.999999999999
 21
686.9448332533615
 31
0.0
  0
LINE
  5
CC53
330
2
100
AcDbEntity
  8
エンボス
  6
Continuous
100
AcDbLine
 10
1389.999999999999
 20
677.9448332533616
 30
0.0
 11
1394.999999999999
 21
679.9448332533614
 31
0.0
  0
LINE
  5
CC54
330
2
100
AcDbEntity
  8
エンボス
  6
Continuous
100
AcDbLine
 10
1394.999999999999
 20
672.9448332533616
 30
0.0
 11
1389.999999999999
 21
674.9448332533614
 31
0.0
  0
LINE
  5
CC5A
330
2
100
AcDbEntity
  8
本体
  6
Continuous
100
AcDbLine
 10
1394.999999999999
 20
719.2573057865825
 30
0.0
 11
1394.999999999999
 21
713.2573057865823
 31
0.0
  0
LINE
  5
CC5B
330
2
100
AcDbEntity
  8
本体
  6
Continuous
100
AcDbLine
 10
1389.999999999999
 20
713.2573057865823
 30
0.0
 11
1394.999999999999
 21
714.2573057865823
 31
0.0
  0
LINE
  5
CC5C
330
2
100
AcDbEntity
  8
エンボス
  6
Continuous
100
AcDbLine
 10
1394.999999999999
 20
700.9448332533614
 30
0.0
 11
1389.999999999999
 21
702.9448332533617
 31
0.0
  0
LINE
  5
CC5D
330
2
100
AcDbEntity
  8
エンボス
  6
Continuous
100
AcDbLine
 10
1389.999999999999
 20
705.9448332533617
 30
0.0
 11
1394.999999999999
 21
707.9448332533615
 31
0.0
  0
LINE
  5
CC5E
330
2
100
AcDbEntity
  8
エンボス
  6
Continuous
100
AcDbLine
 10
1394.999999999999
 20
722.9448332533617
 30
0.0
 11
1389.999999999999
 21
724.9448332533614
 31
0.0
  0
LINE
  5
CC5F
330
2
100
AcDbEntity
  8
エンボス
  6
Continuous
100
AcDbLine
 10
1389.999999999999
 20
727.9448332533617
 30
0.0
 11
1394.999999999999
 21
729.9448332533614
 31
0.0
  0
LINE
  5
CC60
330
2
100
AcDbEntity
  8
嵩上断面
  6
Continuous
100
AcDbLine
 10
1394.999999999999
 20
848.2573057865829
 30
0.0
 11
1394.999999999999
 21
808.2573057865829
 31
0.0
  0
LINE
  5
CC61
330
2
100
AcDbEntity
  8
本体
  6
Continuous
100
AcDbLine
 10
1389.999999999999
 20
808.2573057865829
 30
0.0
 11
1389.999999999999
 21
769.2573057865825
 31
0.0
  0
LINE
  5
CC62
330
2
100
AcDbEntity
  8
本体
  6
Continuous
100
AcDbLine
 10
1394.999999999999
 20
808.2573057865829
 30
0.0
 11
1394.999999999999
 21
769.2573057865825
 31
0.0
  0
LINE
  5
CC6A
330
2
100
AcDbEntity
  8
エンボス
  6
Continuous
100
AcDbLine
 10
1389.999999999999
 20
755.9448332533617
 30
0.0
 11
1394.999999999999
 21
757.9448332533615
 31
0.0
  0
LINE
  5
CC6B
330
2
100
AcDbEntity
  8
本体
  6
Continuous
100
AcDbLine
 10
1389.999999999999
 20
763.2573057865823
 30
0.0
 11
1394.999999999999
 21
764.2573057865823
 31
0.0
  0
LINE
  5
CC6C
330
2
100
AcDbEntity
  8
本体
  6
Continuous
100
AcDbLine
 10
1394.999999999999
 20
769.2573057865825
 30
0.0
 11
1394.999999999999
 21
763.2573057865823
 31
0.0
  0
LINE
  5
CC6D
330
2
100
AcDbEntity
  8
エンボス
  6
Continuous
100
AcDbLine
 10
1394.999999999999
 20
750.9448332533614
 30
0.0
 11
1389.999999999999
 21
752.9448332533617
 31
0.0
  0
LINE
  5
CC6E
330
2
100
AcDbEntity
  8
エンボス
  6
Continuous
100
AcDbLine
 10
1394.999999999999
 20
738.9448332533617
 30
0.0
 11
1389.999999999999
 21
736.9448332533615
 31
0.0
  0
LINE
  5
CC6F
330
2
100
AcDbEntity
  8
エンボス
  6
Continuous
100
AcDbLine
 10
1389.999999999999
 20
743.9448332533617
 30
0.0
 11
1394.999999999999
 21
741.9448332533614
 31
0.0
  0
LINE
  5
CC76
330
2
100
AcDbEntity
  8
嵩上断面
  6
Continuous
100
AcDbLine
 10
1389.999999999999
 20
804.1473674617876
 30
0.0
 11
1394.999999999999
 21
806.3473674617878
 31
0.0
  0
LINE
  5
CC77
330
2
100
AcDbEntity
  8
エンボス
  6
Continuous
100
AcDbLine
 10
1394.999999999999
 20
799.1473674617877
 30
0.0
 11
1389.999999999999
 21
801.1473674617876
 31
0.0
  0
LINE
  5
CC78
330
2
100
AcDbEntity
  8
エンボス
  6
Continuous
100
AcDbLine
 10
1389.999999999999
 20
792.1473674617876
 30
0.0
 11
1394.999999999999
 21
790.1473674617876
 31
0.0
  0
LINE
  5
CC79
330
2
100
AcDbEntity
  8
エンボス
  6
Continuous
100
AcDbLine
 10
1394.999999999999
 20
787.1473674617877
 30
0.0
 11
1389.999999999999
 21
785.1473674617876
 31
0.0
  0
LINE
  5
CC7A
330
2
100
AcDbEntity
  8
エンボス
  6
Continuous
100
AcDbLine
 10
1394.999999999999
 20
771.1473674617876
 30
0.0
 11
1389.999999999999
 21
773.1473674617876
 31
0.0
  0
LINE
  5
CC7B
330
2
100
AcDbEntity
  8
エンボス
  6
Continuous
100
AcDbLine
 10
1389.999999999999
 20
776.1473674617876
 30
0.0
 11
1394.999999999999
 21
778.1473674617877
 31
0.0
  0
INSERT
  5
CCE8
102
{ACAD_REACTORS
330
CD43
102
}
330
2
100
AcDbEntity
  8
エンボス
100
AcDbBlockReference
  2
*U42
 10
429.999999999999
 20
1396.165796905608
 30
0.0
  0
INSERT
  5
CD5D
102
{ACAD_REACTORS
330
CD9A
102
}
330
2
100
AcDbEntity
  8
エンボス
100
AcDbBlockReference
  2
*U44
 10
444.999999999999
 20
666.2573057865825
 30
0.0
  0
INSERT
  5
CDC4
102
{ACAD_REACTORS
330
CDCD
102
}
330
2
100
AcDbEntity
  8
エンボス
100
AcDbBlockReference
  2
*U46
 10
417.499999999999
 20
666.2573057865825
 30
0.0
  0
ENDSEC
  0
SECTION
  2
OBJECTS
  0
DICTIONARY
  5
7
330
0
100
AcDbDictionary
281
     1
  3
ACAD_ASSOCNETWORK
350
CD3B
  3
ACAD_CIP_PREVIOUS_PRODUCT_INFO
350
5B55
  3
ACAD_COLOR
350
5B35
  3
ACAD_DETAILVIEWSTYLE
350
5B4E
  3
ACAD_GROUP
350
534
  3
ACAD_LAYOUT
350
51A
  3
ACAD_MATERIAL
350
5B03
  3
ACAD_MLEADERSTYLE
350
5B4A
  3
ACAD_MLINESTYLE
350
535
  3
ACAD_PLOTSETTINGS
350
536
  3
ACAD_PLOTSTYLENAME
350
6
  3
ACAD_SCALELIST
350
5B38
  3
ACAD_SECTIONVIEWSTYLE
350
5B4C
  3
ACAD_TABLESTYLE
350
5B36
  3
ACAD_VISUALSTYLE
350
5B1C
  3
AcadDim
350
260B
  3
ACDB_RECOMPOSE_DATA
350
CDE3
  3
AcDbVariableDictionary
350
1BD7
  3
DWGPROPS
350
CDE4
  0
DICTIONARY
  5
BC2C
330
52F
100
AcDbDictionary
280
     1
281
     1
  0
DICTIONARY
  5
5BC8
330
527
100
AcDbDictionary
280
     1
281
     1
  3
ACAD_LAYERSTATES
360
5BC9
  0
DICTIONARY
  5
5B65
330
77
100
AcDbDictionary
280
     1
281
     1
  3
ADSK_XREC_LAYER_RECONCILED
360
5B66
  0
DICTIONARY
  5
5B67
330
7A
100
AcDbDictionary
280
     1
281
     1
  3
ADSK_XREC_LAYER_RECONCILED
360
5B68
  0
DICTIONARY
  5
5B69
330
4
100
AcDbDictionary
280
     1
281
     1
  3
ADSK_XREC_LAYER_RECONCILED
360
5B6A
  0
DICTIONARY
  5
5B6D
330
2E8
100
AcDbDictionary
280
     1
281
     1
  3
ADSK_XREC_LAYER_RECONCILED
360
5B6E
  0
DICTIONARY
  5
5B6F
330
11
100
AcDbDictionary
280
     1
281
     1
  3
ADSK_XREC_LAYER_RECONCILED
360
5B70
  0
DICTIONARY
  5
5B73
330
427F
100
AcDbDictionary
280
     1
281
     1
  3
ADSK_XREC_LAYER_RECONCILED
360
5B74
  0
DICTIONARY
  5
5B75
330
4280
100
AcDbDictionary
280
     1
281
     1
  3
ADSK_XREC_LAYER_RECONCILED
360
5B76
  0
DICTIONARY
  5
5B77
330
4281
100
AcDbDictionary
280
     1
281
     1
  3
ADSK_XREC_LAYER_RECONCILED
360
5B78
  0
DICTIONARY
  5
515
330
2
100
AcDbDictionary
280
     1
281
     1
  3
ACAD_ASSOCNETWORK
360
CD39
  3
ACAD_LAYOUTSELFREF
360
516
  3
ACAD_SORTENTS
360
5BE5
  0
DICTIONARY
  5
51C
330
51B
100
AcDbDictionary
280
     1
281
     1
  3
ACAD_LAYOUTSELFREF
360
51D
  0
DICTIONARY
  5
522
330
521
100
AcDbDictionary
280
     1
281
     1
  3
ACAD_LAYOUTSELFREF
360
523
  0
DICTIONARY
  5
CE22
330
CCE5
100
AcDbDictionary
280
     1
281
     1
  3
AcDbBlockTableRecordData
360
CE23
  0
DICTIONARY
  5
CE25
330
CD5A
100
AcDbDictionary
280
     1
281
     1
  3
AcDbBlockTableRecordData
360
CE26
  0
DICTIONARY
  5
CE28
330
CDC1
100
AcDbDictionary
280
     1
281
     1
  3
AcDbBlockTableRecordData
360
CE29
  0
DICTIONARY
  5
CD3B
102
{ACAD_REACTORS
330
7
102
}
330
7
100
AcDbDictionary
281
     1
  3
ACAD_ASSOCNETWORK
350
CD3C
  0
XRECORD
  5
5B55
102
{ACAD_REACTORS
330
7
102
}
330
7
100
AcDbXrecord
280
     1
300
ACDLT
300
2014
300
ACDLT_F_S
  0
DICTIONARY
  5
5B35
102
{ACAD_REACTORS
330
7
102
}
330
7
100
AcDbDictionary
281
     1
  0
DICTIONARY
  5
5B4E
102
{ACAD_REACTORS
330
7
102
}
330
7
100
AcDbDictionary
281
     1
  3
Metric50
350
5B4F
  0
DICTIONARY
  5
534
102
{ACAD_REACTORS
330
7
102
}
330
7
100
AcDbDictionary
281
     1
  3
*A1
350
BBB4
  3
*A2
350
BBBD
  0
DICTIONARY
  5
51A
102
{ACAD_REACTORS
330
7
102
}
330
7
100
AcDbDictionary
281
     1
  3
Layout1
350
520
  3
Layout2
350
526
  3
Model
350
519
  0
DICTIONARY
  5
5B03
102
{ACAD_REACTORS
330
7
102
}
330
7
100
AcDbDictionary
281
     1
  3
ByBlock
350
5B0C
  3
ByLayer
350
5B04
  3
Global
350
5B14
  0
DICTIONARY
  5
5B4A
102
{ACAD_REACTORS
330
7
102
}
330
7
100
AcDbDictionary
281
     1
  3
Standard
350
5B4B
  0
DICTIONARY
  5
535
102
{ACAD_REACTORS
330
7
102
}
330
7
100
AcDbDictionary
281
     1
  3
Standard
350
537
  0
DICTIONARY
  5
536
102
{ACAD_REACTORS
330
7
102
}
330
7
100
AcDbDictionary
281
     1
  0
ACDBDICTIONARYWDFLT
  5
6
102
{ACAD_REACTORS
330
7
102
}
330
7
100
AcDbDictionary
281
     1
  3
Normal
350
5
100
AcDbDictionaryWithDefault
340
5
  0
DICTIONARY
  5
5B38
102
{ACAD_REACTORS
330
7
102
}
330
7
100
AcDbDictionary
281
     1
  3
A0
350
5B39
  3
A1
350
5B3A
  3
A2
350
5B3B
  3
A3
350
5B3C
  3
A4
350
5B3D
  3
A5
350
5B3E
  3
A6
350
5B3F
  3
A7
350
5B40
  3
A8
350
5B41
  3
A9
350
5B42
  3
B0
350
5B43
  3
B1
350
5B44
  3
B2
350
5B45
  3
B3
350
5B46
  3
B4
350
5B47
  3
B5
350
5B48
  3
B6
350
5B49
  0
DICTIONARY
  5
5B4C
102
{ACAD_REACTORS
330
7
102
}
330
7
100
AcDbDictionary
281
     1
  3
Metric50
350
5B4D
  0
DICTIONARY
  5
5B36
102
{ACAD_REACTORS
330
7
102
}
330
7
100
AcDbDictionary
281
     1
  3
Standard
350
5B37
  0
DICTIONARY
  5
5B1C
102
{ACAD_REACTORS
330
7
102
}
330
7
100
AcDbDictionary
281
     1
  3
2dWireframe
350
5B22
  3
Basic
350
5B21
  3
Brighten
350
5B28
  3
ColorChange
350
5B2C
  3
Conceptual
350
5B25
  3
Dim
350
5B27
  3
EdgeColorOff
350
5B34
  3
Facepattern
350
5B2B
  3
Flat
350
5B1D
  3
FlatWithEdges
350
5B1E
  3
Gouraud
350
5B1F
  3
GouraudWithEdges
350
5B20
  3
Hidden
350
5B24
  3
JitterOff
350
5B32
  3
Linepattern
350
5B2A
  3
OverhangOff
350
5B33
  3
Realistic
350
5B26
  3
Shaded
350
5B31
  3
Shaded with edges
350
5B30
  3
Shades of Gray
350
5B2D
  3
Sketchy
350
5B2E
  3
Thicken
350
5B29
  3
Wireframe
350
5B23
  3
X-Ray
350
5B2F
  0
XRECORD
  5
260B
102
{ACAD_REACTORS
330
7
102
}
330
7
100
AcDbXrecord
280
     1
 90
   990106
  3

 60
     0
 61
     0
 62
     4
 63
     4
 64
     1
 65
     0
 66
     0
 67
     3
 68
     1
 69
     0
 70
     0
 71
     0
 72
     0
 40
0.0
170
     2
340
0
  0
XRECORD
  5
CDE3
102
{ACAD_REACTORS
330
7
102
}
330
7
100
AcDbXrecord
280
     1
 90
        1
330
5B37
  0
DICTIONARY
  5
1BD7
102
{ACAD_REACTORS
330
7
102
}
330
7
100
AcDbDictionary
281
     1
  3
CANNOSCALE
350
BC88
  3
CMLEADERSTYLE
350
BC85
  3
CTABLESTYLE
350
BC84
  3
CVIEWDETAILSTYLE
350
BC86
  3
CVIEWSECTIONSTYLE
350
BC87
  3
DIMASSOC
350
BC8A
  3
INDEXCTL
350
BC89
  3
SORTENTS
350
1BD8
  3
XCLIPFRAME
350
CDE1
  0
XRECORD
  5
CDE4
102
{ACAD_REACTORS
330
7
102
}
330
7
100
AcDbXrecord
280
     1
  1
DWGPROPS COOKIE
  2

  3

  4

  6

  7

  8
TAKARA
  9

300
=
301
=
302
=
303
=
304
=
305
=
306
=
307
=
308
=
309
=
 40
0.2809818402777778
 41
2453510.558637211
 42
2457528.443372372
  1

 90
        0
  0
DICTIONARY
  5
5BC9
102
{ACAD_REACTORS
330
5BC8
102
}
330
5BC8
100
AcDbDictionary
281
     1
  0
XRECORD
  5
5B66
102
{ACAD_REACTORS
330
5B65
102
}
330
5B65
100
AcDbXrecord
280
     1
290
     1
  0
XRECORD
  5
5B68
102
{ACAD_REACTORS
330
5B67
102
}
330
5B67
100
AcDbXrecord
280
     1
290
     1
  0
XRECORD
  5
5B6A
102
{ACAD_REACTORS
330
5B69
102
}
330
5B69
100
AcDbXrecord
280
     1
290
     1
  0
XRECORD
  5
5B6E
102
{ACAD_REACTORS
330
5B6D
102
}
330
5B6D
100
AcDbXrecord
280
     1
290
     1
  0
XRECORD
  5
5B70
102
{ACAD_REACTORS
330
5B6F
102
}
330
5B6F
100
AcDbXrecord
280
     1
290
     1
  0
XRECORD
  5
5B74
102
{ACAD_REACTORS
330
5B73
102
}
330
5B73
100
AcDbXrecord
280
     1
290
     1
  0
XRECORD
  5
5B76
102
{ACAD_REACTORS
330
5B75
102
}
330
5B75
100
AcDbXrecord
280
     1
290
     1
  0
XRECORD
  5
5B78
102
{ACAD_REACTORS
330
5B77
102
}
330
5B77
100
AcDbXrecord
280
     1
290
     1
  0
DICTIONARY
  5
CD39
102
{ACAD_REACTORS
330
515
102
}
330
515
100
AcDbDictionary
281
     1
  3
ACAD_ASSOCNETWORK
350
CD3A
  0
XRECORD
  5
516
102
{ACAD_REACTORS
330
515
102
}
330
515
100
AcDbXrecord
280
     1
340
2
  0
SORTENTSTABLE
  5
5BE5
102
{ACAD_REACTORS
330
515
102
}
330
515
100
AcDbSortentsTable
330
2
331
BA8C
  5
BAA2
331
BAAB
  5
BAC2
331
A82A
  5
A839
331
B3BE
  5
B3E3
331
B3F5
  5
B402
331
3F
  5
3F
331
5E
  5
5E
331
BA7C
  5
BA91
331
BABA
  5
BAFF
331
BA9B
  5
BAB0
331
B3E5
  5
B3EE
331
4E
  5
4E
331
6D
  5
6D
331
27
  5
27
331
B478
  5
B5D8
331
BA8B
  5
BAA1
331
BAAA
  5
BAC1
331
BBA9
  5
B5D2
331
A829
  5
A838
331
A89E
  5
AD0F
331
B3F4
  5
B401
331
3E
  5
3E
331
5D
  5
5D
331
BA7B
  5
BA90
331
BA9A
  5
BAAF
331
BAB9
  5
BAFE
331
B3E4
  5
B3ED
331
26
  5
26
331
4D
  5
4D
331
6C
  5
6C
331
B477
  5
B5D7
331
BA8A
  5
BAA0
331
BAA9
  5
BAC0
331
B3F3
  5
B400
331
3D
  5
3D
331
5C
  5
5C
331
1DF7
  5
1DF7
331
BA7A
  5
BA8F
331
BA99
  5
BAAE
331
BAB8
  5
BAFD
331
B3E3
  5
B3EC
331
25
  5
25
331
4C
  5
4C
331
6B
  5
6B
331
B476
  5
B5D6
331
BA89
  5
BA9F
331
BAA8
  5
BABF
331
BB07
  5
B5D5
331
3C
  5
3C
331
5B
  5
5B
331
B3F2
  5
B3FF
331
B3B6
  5
B3E2
331
BA79
  5
BA8E
331
BA98
  5
BAAD
331
BAB7
  5
BAFC
331
B3E2
  5
B3EB
331
24
  5
24
331
4B
  5
4B
331
6A
  5
6A
331
B475
  5
B5D3
331
BA88
  5
BA9E
331
BAA7
  5
BABE
331
BB06
  5
B5D4
331
3B
  5
3B
331
5A
  5
5A
331
B3F1
  5
B3FE
331
B3B5
  5
B3E1
331
BA78
  5
BA8D
331
BA97
  5
BAAC
331
23
  5
23
331
4A
  5
4A
331
69
  5
69
331
B3E1
  5
B3EA
331
B474
  5
B5D0
331
17
  5
17
331
BAA6
  5
BABC
331
B3F0
  5
B3FD
331
59
  5
59
331
B3B4
  5
B3E0
331
BAB5
  5
BAFB
331
2F
  5
2F
331
22
  5
22
331
49
  5
49
331
68
  5
68
331
B3E0
  5
B3E9
331
AAEC
  5
AD11
331
B473
  5
B5CF
331
BAA5
  5
BABB
331
39
  5
39
331
58
  5
58
331
B3B3
  5
B3DF
331
BA95
  5
BAAB
331
BAB4
  5
BAFA
331
21
  5
21
331
48
  5
48
331
67
  5
67
331
B472
  5
B47E
331
BAA4
  5
BABA
331
38
  5
38
331
57
  5
57
331
B3B2
  5
B3DE
331
BA94
  5
BAAA
331
BAB3
  5
BAF9
331
20
  5
20
331
47
  5
47
331
14
  5
14
331
B471
  5
B47C
331
BAA3
  5
BAB9
331
4161
  5
4161
331
56
  5
56
331
B3B1
  5
B3DD
331
BA93
  5
BAA9
331
BAB2
  5
BAF8
331
2C
  5
2C
331
1F
  5
1F
331
46
  5
46
331
65
  5
65
331
13
  5
13
331
B470
  5
B47A
331
BAA2
  5
BAB8
331
5BE1
  5
5C00
331
55
  5
55
331
B3B0
  5
B3DC
331
BA92
  5
BAA8
331
BAB1
  5
BAF7
331
2B
  5
2B
331
1E
  5
1E
331
64
  5
64
331
12
  5
12
331
BAA1
  5
BAB7
331
5BE0
  5
5BFF
331
54
  5
54
331
BA91
  5
BAA7
331
BAB0
  5
BAF6
331
38DF
  5
38DF
331
2A
  5
2A
331
1702
  5
1702
331
1DFE
  5
1DFE
331
63
  5
63
331
BAA0
  5
BAB5
331
53
  5
53
331
BA90
  5
BAA6
331
29
  5
29
331
1701
  5
1701
331
1DFD
  5
1DFD
331
1C
  5
1C
331
43
  5
43
331
62
  5
62
331
33
  5
33
331
52
  5
52
331
28
  5
28
331
61
  5
61
331
1DFC
  5
1DFC
331
1B
  5
1B
331
42
  5
42
331
32
  5
32
331
51
  5
51
331
60
  5
60
331
1DFB
  5
1DFB
331
1A
  5
1A
331
41
  5
41
331
50
  5
50
331
31
  5
31
331
1DFA
  5
1DFA
331
19
  5
19
331
40
  5
40
331
1DF9
  5
1DF9
331
18
  5
18
331
74
  5
74
331
73
  5
73
331
26E4
  5
26E4
331
71
  5
71
331
70
  5
70
331
5BD1
  5
5BE8
331
BA87
  5
BA9D
331
BA77
  5
BA8C
331
BA86
  5
BA9C
331
B3EF
  5
B3FC
331
BA76
  5
BA8B
331
B3DF
  5
B3E8
331
BA85
  5
BA9B
331
B3EE
  5
B3FB
331
AC1F
  5
AD13
331
BA75
  5
BA8A
331
B3DE
  5
B3E7
331
BA84
  5
BA9A
331
B3ED
  5
B3FA
331
B3DD
  5
B3E6
331
BA83
  5
BA99
331
B3EC
  5
B3F5
331
BA73
  5
BA89
331
B3DC
  5
B3E5
331
BA82
  5
BA98
331
B3EB
  5
B3F4
331
B3AF
  5
B3DB
331
B47E
  5
B5DE
331
BA72
  5
BA88
331
B3DB
  5
B3E4
331
B3FE
  5
B408
331
BA81
  5
BA97
331
5BDF
  5
5BFE
331
A83E
  5
A849
331
B3EA
  5
B3F3
331
B47D
  5
B5DD
331
BAAF
  5
BAC6
331
BA71
  5
BA87
331
B3FD
  5
B407
331
BA9F
  5
BAB4
331
BA80
  5
BA95
331
5BDE
  5
5BE9
331
B3E9
  5
B3F2
331
B47C
  5
B5DC
331
BA8F
  5
BAA5
331
BAAE
  5
BAC5
331
BA70
  5
BA86
331
A8A2
  5
AD10
331
A81D
  5
A829
331
B3FC
  5
B405
331
BA7F
  5
BA94
331
BA9E
  5
BAB3
331
B3E8
  5
B3F1
331
B47B
  5
B5DB
331
BA8E
  5
BAA4
331
BAAD
  5
BAC4
331
BA6F
  5
BA85
331
A81C
  5
A825
331
B3FB
  5
B404
331
BA7E
  5
BA93
331
BABC
  5
BB01
331
BA9D
  5
BAB2
331
B3E7
  5
B3F0
331
B47A
  5
B5DA
331
BA6E
  5
BA84
331
BA8D
  5
BAA3
331
BAAC
  5
BAC3
331
5F
  5
5F
331
A81B
  5
A824
331
B3FA
  5
B403
331
BA7D
  5
BA92
331
BABB
  5
BB00
331
BA9C
  5
BAB1
331
AB6F
  5
AD12
331
B3E6
  5
B3EF
331
4F
  5
4F
331
6E
  5
6E
331
B479
  5
B5D9
  0
XRECORD
  5
51D
102
{ACAD_REACTORS
330
51C
102
}
330
51C
100
AcDbXrecord
280
     1
340
51B
  0
XRECORD
  5
523
102
{ACAD_REACTORS
330
522
102
}
330
522
100
AcDbXrecord
280
     1
340
521
  0
DICTIONARY
  5
CE23
102
{ACAD_REACTORS
330
CE22
102
}
330
CE22
100
AcDbDictionary
280
     1
281
     1
  3
Edit
360
CE24
  0
DICTIONARY
  5
CE26
102
{ACAD_REACTORS
330
CE25
102
}
330
CE25
100
AcDbDictionary
280
     1
281
     1
  3
Edit
360
CE27
  0
DICTIONARY
  5
CE29
102
{ACAD_REACTORS
330
CE28
102
}
330
CE28
100
AcDbDictionary
280
     1
281
     1
  3
Edit
360
CE2A
  0
ACDBASSOCNETWORK
  5
CD3C
102
{ACAD_REACTORS
330
CD3B
102
}
330
CD3B
100
AcDbAssocAction
 90
        1
 90
        1
330
0
360
0
 90
        0
 90
        0
 90
        0
100
AcDbAssocNetwork
 90
        0
 90
        1
 90
        1
330
CD3A
 90
        1
330
CD3A
  0
ACDBDETAILVIEWSTYLE
  5
5B4F
102
{ACAD_XDICTIONARY
360
CE20
102
}
102
{ACAD_REACTORS
330
5B4E
102
}
330
5B4E
100
AcDbModelDocViewStyle
 70
     0
  3
Metric50
290
     0
100
AcDbDetailViewStyle
 70
     0
 71
     0
 90
        3
 71
     1
340
9
 40
5.0
340
0
 40
5.0
300

 40
0.0
280
     1
 71
     2
340
8
 90
       25
 71
     3
340
9
 40
5.0
 90
        0
 40
15.0
 90
        1
300
%<\AcVar ViewDetailId>% (%<\AcVar ViewScale \f "%sn">%)
 71
     4
340
8
 90
       25
340
8
 90
       25
280
     0
  0
GROUP
  5
BBB4
102
{ACAD_REACTORS
330
534
102
}
330
534
100
AcDbGroup
300

 70
     1
 71
     1
340
BBAC
340
BBAD
340
BBB1
340
BBB2
340
BBAE
340
BBAF
340
BBB0
340
BBB3
  0
GROUP
  5
BBBD
102
{ACAD_REACTORS
330
534
102
}
330
534
100
AcDbGroup
300

 70
     1
 71
     1
340
BBB5
340
BBB6
340
BBBA
340
BBBB
340
BBB7
340
BBB8
340
BBB9
340
BBBC
  0
LAYOUT
  5
520
102
{ACAD_XDICTIONARY
360
CDE7
102
}
102
{ACAD_REACTORS
330
51A
102
}
330
51A
100
AcDbPlotSettings
  1

  2
None
  4

  6

 40
0.0
 41
0.0
 42
0.0
 43
0.0
 44
0.0
 45
0.0
 46
0.0
 47
0.0
 48
0.0
 49
0.0
140
0.0
141
0.0
142
1.0
143
1.0
 70
   688
 72
     0
 73
     0
 74
     5
  7
monochrome.ctb
 75
    16
147
1.0
148
0.0
149
0.0
100
AcDbLayout
  1
Layout1
 70
     1
 71
     1
 10
0.0
 20
0.0
 11
12.0
 21
9.0
 12
0.0
 22
0.0
 32
0.0
 14
0.0
 24
0.0
 34
0.0
 15
0.0
 25
0.0
 35
0.0
146
0.0
 13
0.0
 23
0.0
 33
0.0
 16
1.0
 26
0.0
 36
0.0
 17
0.0
 27
1.0
 37
0.0
 76
     0
330
51B
  0
LAYOUT
  5
526
102
{ACAD_XDICTIONARY
360
CDE9
102
}
102
{ACAD_REACTORS
330
51A
102
}
330
51A
100
AcDbPlotSettings
  1

  2
None
  4

  6

 40
0.0
 41
0.0
 42
0.0
 43
0.0
 44
0.0
 45
0.0
 46
0.0
 47
0.0
 48
0.0
 49
0.0
140
0.0
141
0.0
142
1.0
143
1.0
 70
   688
 72
     0
 73
     0
 74
     5
  7
monochrome.ctb
 75
    16
147
1.0
148
0.0
149
0.0
100
AcDbLayout
  1
Layout2
 70
     1
 71
     2
 10
0.0
 20
0.0
 11
12.0
 21
9.0
 12
0.0
 22
0.0
 32
0.0
 14
0.0
 24
0.0
 34
0.0
 15
0.0
 25
0.0
 35
0.0
146
0.0
 13
0.0
 23
0.0
 33
0.0
 16
1.0
 26
0.0
 36
0.0
 17
0.0
 27
1.0
 37
0.0
 76
     0
330
521
  0
LAYOUT
  5
519
102
{ACAD_XDICTIONARY
360
CDE5
102
}
102
{ACAD_REACTORS
330
51A
102
}
330
51A
100
AcDbPlotSettings
  1

  2
EPSON LP-9400
  4
A4
  6

 40
5.873749732971191
 41
5.873747825622557
 42
5.873748779296875
 43
5.873748779296875
 44
209.9733276367186
 45
297.0106506347656
 46
2.339999999999998
 47
0.0
 48
0.0
 49
0.0
140
0.0
141
0.0
142
1.0
143
9.816891609963192
 70
 11956
 72
     1
 73
     1
 74
     1
  7
monochrome.ctb
 75
     0
147
0.1018652379725877
148
1264.94917075748
149
959.6633564695521
100
AcDbLayout
  1
Model
 70
     1
 71
     0
 10
0.0
 20
0.0
 11
12.0
 21
9.0
 12
0.0
 22
0.0
 32
0.0
 14
0.0
 24
0.0
 34
0.0
 15
0.0
 25
0.0
 35
0.0
146
0.0
 13
0.0
 23
0.0
 33
0.0
 16
1.0
 26
0.0
 36
0.0
 17
0.0
 27
1.0
 37
0.0
 76
     0
330
2
331
5B01
  0
MATERIAL
  5
5B0C
102
{ACAD_XDICTIONARY
360
5B0D
102
}
102
{ACAD_REACTORS
330
5B03
102
}
330
5B03
100
AcDbMaterial
  1
ByBlock
 72
     0
 43
0.0008202099737533
 43
0.0
 43
0.0
 43
0.0
 43
0.0
 43
0.0008202099737533
 43
0.0
 43
0.0
 43
0.0
 43
0.0
 43
1.0
 43
0.0
 43
0.0
 43
0.0
 43
0.0
 43
1.0
 77
     0
 47
0.0008202099737533
 47
0.0
 47
0.0
 47
0.0
 47
0.0
 47
0.0008202099737533
 47
0.0
 47
0.0
 47
0.0
 47
0.0
 47
1.0
 47
0.0
 47
0.0
 47
0.0
 47
0.0
 47
1.0
171
     0
 49
0.0008202099737533
 49
0.0
 49
0.0
 49
0.0
 49
0.0
 49
0.0008202099737533
 49
0.0
 49
0.0
 49
0.0
 49
0.0
 49
1.0
 49
0.0
 49
0.0
 49
0.0
 49
0.0
 49
1.0
175
     0
142
0.0008202099737533
142
0.0
142
0.0
142
0.0
142
0.0
142
0.0008202099737533
142
0.0
142
0.0
142
0.0
142
0.0
142
1.0
142
0.0
142
0.0
142
0.0
142
0.0
142
1.0
179
     0
144
0.0008202099737533
144
0.0
144
0.0
144
0.0
144
0.0
144
0.0008202099737533
144
0.0
144
0.0
144
0.0
144
0.0
144
1.0
144
0.0
144
0.0
144
0.0
144
0.0
144
1.0
147
0.0008202099737533
147
0.0
147
0.0
147
0.0
147
0.0
147
0.0008202099737533
147
0.0
147
0.0
147
0.0
147
0.0
147
1.0
147
0.0
147
0.0
147
0.0
147
0.0
147
1.0
  0
MATERIAL
  5
5B04
102
{ACAD_XDICTIONARY
360
5B05
102
}
102
{ACAD_REACTORS
330
5B03
102
}
330
5B03
100
AcDbMaterial
  1
ByLayer
 72
     0
 43
0.0008202099737533
 43
0.0
 43
0.0
 43
0.0
 43
0.0
 43
0.0008202099737533
 43
0.0
 43
0.0
 43
0.0
 43
0.0
 43
1.0
 43
0.0
 43
0.0
 43
0.0
 43
0.0
 43
1.0
 77
     0
 47
0.0008202099737533
 47
0.0
 47
0.0
 47
0.0
 47
0.0
 47
0.0008202099737533
 47
0.0
 47
0.0
 47
0.0
 47
0.0
 47
1.0
 47
0.0
 47
0.0
 47
0.0
 47
0.0
 47
1.0
171
     0
 49
0.0008202099737533
 49
0.0
 49
0.0
 49
0.0
 49
0.0
 49
0.0008202099737533
 49
0.0
 49
0.0
 49
0.0
 49
0.0
 49
1.0
 49
0.0
 49
0.0
 49
0.0
 49
0.0
 49
1.0
175
     0
142
0.0008202099737533
142
0.0
142
0.0
142
0.0
142
0.0
142
0.0008202099737533
142
0.0
142
0.0
142
0.0
142
0.0
142
1.0
142
0.0
142
0.0
142
0.0
142
0.0
142
1.0
179
     0
144
0.0008202099737533
144
0.0
144
0.0
144
0.0
144
0.0
144
0.0008202099737533
144
0.0
144
0.0
144
0.0
144
0.0
144
1.0
144
0.0
144
0.0
144
0.0
144
0.0
144
1.0
147
0.0008202099737533
147
0.0
147
0.0
147
0.0
147
0.0
147
0.0008202099737533
147
0.0
147
0.0
147
0.0
147
0.0
147
1.0
147
0.0
147
0.0
147
0.0
147
0.0
147
1.0
  0
MATERIAL
  5
5B14
102
{ACAD_XDICTIONARY
360
5B15
102
}
102
{ACAD_REACTORS
330
5B03
102
}
330
5B03
100
AcDbMaterial
  1
Global
 72
     0
 43
0.0008202099737533
 43
0.0
 43
0.0
 43
0.0
 43
0.0
 43
0.0008202099737533
 43
0.0
 43
0.0
 43
0.0
 43
0.0
 43
1.0
 43
0.0
 43
0.0
 43
0.0
 43
0.0
 43
1.0
 77
     0
 47
0.0008202099737533
 47
0.0
 47
0.0
 47
0.0
 47
0.0
 47
0.0008202099737533
 47
0.0
 47
0.0
 47
0.0
 47
0.0
 47
1.0
 47
0.0
 47
0.0
 47
0.0
 47
0.0
 47
1.0
171
     0
 49
0.0008202099737533
 49
0.0
 49
0.0
 49
0.0
 49
0.0
 49
0.0008202099737533
 49
0.0
 49
0.0
 49
0.0
 49
0.0
 49
1.0
 49
0.0
 49
0.0
 49
0.0
 49
0.0
 49
1.0
175
     0
142
0.0008202099737533
142
0.0
142
0.0
142
0.0
142
0.0
142
0.0008202099737533
142
0.0
142
0.0
142
0.0
142
0.0
142
1.0
142
0.0
142
0.0
142
0.0
142
0.0
142
1.0
179
     0
144
0.0008202099737533
144
0.0
144
0.0
144
0.0
144
0.0
144
0.0008202099737533
144
0.0
144
0.0
144
0.0
144
0.0
144
1.0
144
0.0
144
0.0
144
0.0
144
0.0
144
1.0
147
0.0008202099737533
147
0.0
147
0.0
147
0.0
147
0.0
147
0.0008202099737533
147
0.0
147
0.0
147
0.0
147
0.0
147
1.0
147
0.0
147
0.0
147
0.0
147
0.0
147
1.0
  0
MLEADERSTYLE
  5
5B4B
102
{ACAD_XDICTIONARY
360
CE1C
102
}
102
{ACAD_REACTORS
330
5B4A
102
}
330
5B4A
100
AcDbMLeaderStyle
170
     2
171
     1
172
     0
 90
        2
 40
0.0
 41
0.0
173
     1
 91
-1056964608
340
52B
 92
       -2
290
     1
 42
2.0
291
     1
 43
0.36
  3
Standard
 44
4.0
300

342
9
174
     1
178
     6
175
     1
176
     0
 93
-1056964608
 45
4.0
292
     0
297
     0
 46
4.0
 94
-1056964608
 47
1.0
 49
1.0
140
1.0
293
     1
141
0.0
294
     1
177
     0
142
1.0
295
     0
296
     0
143
0.125
1001
ACAD_MLEADERVER
1070
     2
  0
MLINESTYLE
  5
537
102
{ACAD_REACTORS
330
535
102
}
330
535
100
AcDbMlineStyle
  2
STANDARD
 70
     0
  3

 62
   256
 51
90.0
 52
90.0
 71
     2
 49
0.5
 62
   256
  6
BYLAYER
 49
-0.5
 62
   256
  6
BYLAYER
  0
ACDBPLACEHOLDER
  5
5
102
{ACAD_REACTORS
330
6
102
}
330
6
  0
SCALE
  5
5B39
102
{ACAD_REACTORS
330
5B38
102
}
330
5B38
100
AcDbScale
 70
     0
300
1:1
140
1.0
141
1.0
290
     1
  0
SCALE
  5
5B3A
102
{ACAD_REACTORS
330
5B38
102
}
330
5B38
100
AcDbScale
 70
     0
300
1:2
140
1.0
141
2.0
290
     0
  0
SCALE
  5
5B3B
102
{ACAD_REACTORS
330
5B38
102
}
330
5B38
100
AcDbScale
 70
     0
300
1:4
140
1.0
141
4.0
290
     0
  0
SCALE
  5
5B3C
102
{ACAD_REACTORS
330
5B38
102
}
330
5B38
100
AcDbScale
 70
     0
300
1:5
140
1.0
141
5.0
290
     0
  0
SCALE
  5
5B3D
102
{ACAD_REACTORS
330
5B38
102
}
330
5B38
100
AcDbScale
 70
     0
300
1:8
140
1.0
141
8.0
290
     0
  0
SCALE
  5
5B3E
102
{ACAD_REACTORS
330
5B38
102
}
330
5B38
100
AcDbScale
 70
     0
300
1:10
140
1.0
141
10.0
290
     0
  0
SCALE
  5
5B3F
102
{ACAD_REACTORS
330
5B38
102
}
330
5B38
100
AcDbScale
 70
     0
300
1:16
140
1.0
141
16.0
290
     0
  0
SCALE
  5
5B40
102
{ACAD_REACTORS
330
5B38
102
}
330
5B38
100
AcDbScale
 70
     0
300
1:20
140
1.0
141
20.0
290
     0
  0
SCALE
  5
5B41
102
{ACAD_REACTORS
330
5B38
102
}
330
5B38
100
AcDbScale
 70
     0
300
1:30
140
1.0
141
30.0
290
     0
  0
SCALE
  5
5B42
102
{ACAD_REACTORS
330
5B38
102
}
330
5B38
100
AcDbScale
 70
     0
300
1:40
140
1.0
141
40.0
290
     0
  0
SCALE
  5
5B43
102
{ACAD_REACTORS
330
5B38
102
}
330
5B38
100
AcDbScale
 70
     0
300
1:50
140
1.0
141
50.0
290
     0
  0
SCALE
  5
5B44
102
{ACAD_REACTORS
330
5B38
102
}
330
5B38
100
AcDbScale
 70
     0
300
1:100
140
1.0
141
100.0
290
     0
  0
SCALE
  5
5B45
102
{ACAD_REACTORS
330
5B38
102
}
330
5B38
100
AcDbScale
 70
     0
300
2:1
140
2.0
141
1.0
290
     0
  0
SCALE
  5
5B46
102
{ACAD_REACTORS
330
5B38
102
}
330
5B38
100
AcDbScale
 70
     0
300
4:1
140
4.0
141
1.0
290
     0
  0
SCALE
  5
5B47
102
{ACAD_REACTORS
330
5B38
102
}
330
5B38
100
AcDbScale
 70
     0
300
8:1
140
8.0
141
1.0
290
     0
  0
SCALE
  5
5B48
102
{ACAD_REACTORS
330
5B38
102
}
330
5B38
100
AcDbScale
 70
     0
300
10:1
140
10.0
141
1.0
290
     0
  0
SCALE
  5
5B49
102
{ACAD_REACTORS
330
5B38
102
}
330
5B38
100
AcDbScale
 70
     0
300
100:1
140
100.0
141
1.0
290
     0
  0
ACDBSECTIONVIEWSTYLE
  5
5B4D
102
{ACAD_XDICTIONARY
360
CE1E
102
}
102
{ACAD_REACTORS
330
5B4C
102
}
330
5B4C
100
AcDbModelDocViewStyle
 70
     0
  3
Metric50
290
     0
100
AcDbSectionViewStyle
 70
     0
 71
     0
 90
      102
 71
     1
340
9
 40
5.0
340
0
340
0
 40
5.0
300
I, O, Q, S, X, Z
 40
10.0
 90
        0
 40
2.5
 90
        0
 71
     2
340
8
 90
       25
340
8
 90
       50
 40
5.0
 40
2.5
 40
5.0
 71
     3
340
9
 40
5.0
 90
        0
 40
15.0
 90
        1
300
%<\AcVar ViewSectionStartId>%-%<\AcVar ViewSectionEndId>% (%<\AcVar ViewScale \f "%sn">%)
 71
     4
300
ANSI31
 40
1.0
 90
        0
290
     0
290
     0
 90
        6
 40
0.0
 40
1.570796326794896
 40
0.2617993877991494
 40
1.308996938995747
 40
-0.2617993877991494
 40
1.832595714594045
  0
TABLESTYLE
  5
5B37
102
{ACAD_XDICTIONARY
360
BC22
102
}
102
{ACAD_REACTORS
330
5B36
102
}
330
5B36
100
AcDbTableStyle
  3
Standard
 70
     0
 71
     0
 40
1.5
 41
1.5
280
     0
281
     0
  7
Standard
140
4.5
170
     2
 62
     0
 63
     7
283
     0
274
    -2
284
     1
 64
     0
275
    -2
285
     1
 65
     0
276
    -2
286
     1
 66
     0
277
    -2
287
     1
 67
     0
278
    -2
288
     1
 68
     0
279
    -2
289
     1
 69
     0
  7
Standard
140
6.0
170
     5
 62
     0
 63
     7
283
     0
274
    -2
284
     1
 64
     0
275
    -2
285
     1
 65
     0
276
    -2
286
     1
 66
     0
277
    -2
287
     1
 67
     0
278
    -2
288
     1
 68
     0
279
    -2
289
     1
 69
     0
  7
Standard
140
4.5
170
     5
 62
     0
 63
     7
283
     0
274
    -2
284
     1
 64
     0
275
    -2
285
     1
 65
     0
276
    -2
286
     1
 66
     0
277
    -2
287
     1
 67
     0
278
    -2
288
     1
 68
     0
279
    -2
289
     1
 69
     0
  0
VISUALSTYLE
  5
5B22
102
{ACAD_XDICTIONARY
360
CDF5
102
}
102
{ACAD_REACTORS
330
5B1C
102
}
330
5B1C
100
AcDbVisualStyle
  2

 70
     4
 71
     0
 72
     2
 73
     0
 90
        0
 40
-0.6
 41
-30.0
 62
     5
 63
     7
 74
     1
 91
        4
 64
     7
 65
   257
 75
     1
175
     1
 42
1.0
 92
        0
 66
   257
 43
1.0
 76
     1
 77
     6
 78
     2
 67
     7
 79
     5
170
     0
171
     0
290
     0
174
     0
 93
        1
 44
0.0
173
     0
291
     0
 45
0.0
1001
ACAD
1000
AcDbSavedByObjectVersion
1070
     0
  0
VISUALSTYLE
  5
5B21
102
{ACAD_XDICTIONARY
360
CDF3
102
}
102
{ACAD_REACTORS
330
5B1C
102
}
330
5B1C
100
AcDbVisualStyle
  2

 70
     7
 71
     1
 72
     0
 73
     1
 90
        0
 40
-0.6
 41
-30.0
 62
     5
 63
     7
 74
     0
 91
        4
 64
     7
 65
   257
 75
     1
175
     1
 42
1.0
 92
        8
 66
     7
 43
1.0
 76
     1
 77
     6
 78
     2
 67
     7
 79
     5
170
     0
171
     0
290
     0
174
     0
 93
        1
 44
0.0
173
     0
291
     1
 45
0.0
1001
ACAD
1000
AcDbSavedByObjectVersion
1070
     0
  0
VISUALSTYLE
  5
5B28
102
{ACAD_XDICTIONARY
360
CE01
102
}
102
{ACAD_REACTORS
330
5B1C
102
}
330
5B1C
100
AcDbVisualStyle
  2

 70
    12
 71
     2
 72
     2
 73
     0
 90
        0
 40
-0.6
 41
-30.0
 62
     5
 63
     7
 74
     1
 91
        4
 64
     7
 65
   257
 75
     1
175
     1
 42
1.0
 92
        8
 66
     7
 43
1.0
 76
     1
 77
     6
 78
     2
 67
     7
 79
     5
170
     0
171
     0
290
     0
174
     0
 93
        1
 44
50.0
173
     0
291
     1
 45
0.0
1001
ACAD
1000
AcDbSavedByObjectVersion
1070
     0
  0
VISUALSTYLE
  5
5B2C
102
{ACAD_XDICTIONARY
360
CE09
102
}
102
{ACAD_REACTORS
330
5B1C
102
}
330
5B1C
100
AcDbVisualStyle
  2

 70
    16
 71
     2
 72
     2
 73
     3
 90
        0
 40
-0.6
 41
-30.0
 62
     5
 63
     8
 74
     1
 91
        4
 64
     7
 65
   257
 75
     1
175
     1
 42
1.0
 92
        8
 66
     8
 43
1.0
 76
     1
 77
     6
 78
     2
 67
     7
 79
     5
170
     0
171
     0
290
     0
174
     0
 93
        1
 44
0.0
173
     0
291
     1
 45
0.0
1001
ACAD
1000
AcDbSavedByObjectVersion
1070
     0
  0
VISUALSTYLE
  5
5B25
102
{ACAD_XDICTIONARY
360
CDFB
102
}
102
{ACAD_REACTORS
330
5B1C
102
}
330
5B1C
100
AcDbVisualStyle
  2

 70
     9
 71
     3
 72
     2
 73
     0
 90
        0
 40
-0.6
 41
-30.0
 62
     5
 63
     7
 74
     2
 91
        2
 64
     7
 65
   257
 75
     1
175
     1
 42
179.0
 92
        8
 66
     7
 43
1.0
 76
     1
 77
     6
 78
     2
 67
     7
 79
     3
170
     0
171
     0
290
     0
174
     0
 93
        1
 44
0.0
173
     0
291
     0
 45
0.0
1001
ACAD
1000
AcDbSavedByObjectVersion
1070
     0
  0
VISUALSTYLE
  5
5B27
102
{ACAD_XDICTIONARY
360
CDFF
102
}
102
{ACAD_REACTORS
330
5B1C
102
}
330
5B1C
100
AcDbVisualStyle
  2

 70
    11
 71
     2
 72
     2
 73
     0
 90
        0
 40
-0.6
 41
-30.0
 62
     5
 63
     7
 74
     1
 91
        4
 64
     7
 65
   257
 75
     1
175
     1
 42
1.0
 92
        8
 66
     7
 43
1.0
 76
     1
 77
     6
 78
     2
 67
     7
 79
     5
170
     0
171
     0
290
     0
174
     0
 93
        1
 44
-50.0
173
     0
291
     1
 45
0.0
1001
ACAD
1000
AcDbSavedByObjectVersion
1070
     0
  0
VISUALSTYLE
  5
5B34
102
{ACAD_XDICTIONARY
360
CE19
102
}
102
{ACAD_REACTORS
330
5B1C
102
}
330
5B1C
100
AcDbVisualStyle
  2

 70
    22
 71
     2
 72
     2
 73
     0
 90
        0
 40
-0.6
 41
-30.0
 62
     5
 63
     7
 74
     1
 91
        4
 64
     7
 65
   257
 75
     1
175
     1
 42
1.0
 92
        8
 66
     7
 43
1.0
 76
     1
 77
     6
 78
     2
 67
     7
 79
     5
170
     0
171
     0
290
     0
174
     0
 93
        1
 44
0.0
173
     0
291
     1
 45
0.0
1001
ACAD
1000
AcDbSavedByObjectVersion
1070
     0
  0
VISUALSTYLE
  5
5B2B
102
{ACAD_XDICTIONARY
360
CE07
102
}
102
{ACAD_REACTORS
330
5B1C
102
}
330
5B1C
100
AcDbVisualStyle
  2

 70
    15
 71
     2
 72
     2
 73
     0
 90
        0
 40
-0.6
 41
-30.0
 62
     5
 63
     7
 74
     1
 91
        4
 64
     7
 65
   257
 75
     1
175
     1
 42
1.0
 92
        8
 66
     7
 43
1.0
 76
     1
 77
     6
 78
     2
 67
     7
 79
     5
170
     0
171
     0
290
     0
174
     0
 93
        1
 44
0.0
173
     0
291
     1
 45
0.0
1001
ACAD
1000
AcDbSavedByObjectVersion
1070
     0
  0
VISUALSTYLE
  5
5B1D
102
{ACAD_XDICTIONARY
360
CDEB
102
}
102
{ACAD_REACTORS
330
5B1C
102
}
330
5B1C
100
AcDbVisualStyle
  2

 70
     0
 71
     2
 72
     1
 73
     1
 90
        2
 40
-0.6
 41
30.0
 62
     5
 63
     7
 74
     0
 91
        0
 64
     7
 65
   257
 75
     1
175
     1
 42
1.0
 92
        8
 66
     7
 43
1.0
 76
     1
 77
     6
 78
     2
 67
     7
 79
     5
170
     0
171
     0
290
     0
174
     0
 93
       13
 44
0.0
173
     0
291
     1
 45
0.0
1001
ACAD
1000
AcDbSavedByObjectVersion
1070
     0
  0
VISUALSTYLE
  5
5B1E
102
{ACAD_XDICTIONARY
360
CDED
102
}
102
{ACAD_REACTORS
330
5B1C
102
}
330
5B1C
100
AcDbVisualStyle
  2

 70
     1
 71
     2
 72
     1
 73
     1
 90
        2
 40
-0.6
 41
30.0
 62
     5
 63
     7
 74
     1
 91
        0
 64
     7
 65
   257
 75
     1
175
     1
 42
1.0
 92
        0
 66
   257
 43
1.0
 76
     1
 77
     6
 78
     2
 67
     7
 79
     5
170
     0
171
     0
290
     0
174
     0
 93
       13
 44
0.0
173
     0
291
     1
 45
0.0
1001
ACAD
1000
AcDbSavedByObjectVersion
1070
     0
  0
VISUALSTYLE
  5
5B1F
102
{ACAD_XDICTIONARY
360
CDEF
102
}
102
{ACAD_REACTORS
330
5B1C
102
}
330
5B1C
100
AcDbVisualStyle
  2

 70
     2
 71
     2
 72
     2
 73
     1
 90
        2
 40
-0.6
 41
30.0
 62
     5
 63
     7
 74
     0
 91
        0
 64
     7
 65
   257
 75
     1
175
     1
 42
1.0
 92
        0
 66
     7
 43
1.0
 76
     1
 77
     6
 78
     2
 67
     7
 79
     5
170
     0
171
     0
290
     0
174
     0
 93
       13
 44
0.0
173
     0
291
     1
 45
0.0
1001
ACAD
1000
AcDbSavedByObjectVersion
1070
     0
  0
VISUALSTYLE
  5
5B20
102
{ACAD_XDICTIONARY
360
CDF1
102
}
102
{ACAD_REACTORS
330
5B1C
102
}
330
5B1C
100
AcDbVisualStyle
  2

 70
     3
 71
     2
 72
     2
 73
     1
 90
        2
 40
-0.6
 41
30.0
 62
     5
 63
     7
 74
     1
 91
        0
 64
     7
 65
   257
 75
     1
175
     1
 42
1.0
 92
        0
 66
   257
 43
1.0
 76
     1
 77
     6
 78
     2
 67
     7
 79
     5
170
     0
171
     0
290
     0
174
     0
 93
       13
 44
0.0
173
     0
291
     1
 45
0.0
1001
ACAD
1000
AcDbSavedByObjectVersion
1070
     0
  0
VISUALSTYLE
  5
5B24
102
{ACAD_XDICTIONARY
360
CDF9
102
}
102
{ACAD_REACTORS
330
5B1C
102
}
330
5B1C
100
AcDbVisualStyle
  2

 70
     6
 71
     1
 72
     2
 73
     2
 90
        0
 40
-0.6
 41
-30.0
 62
     5
 63
     7
 74
     2
 91
        2
 64
     7
 65
   257
 75
     2
175
     1
 42
40.0
 92
        0
 66
   257
 43
1.0
 76
     1
 77
     6
 78
     2
 67
     7
 79
     3
170
     0
171
     0
290
     0
174
     0
 93
        1
 44
0.0
173
     0
291
     0
 45
0.0
1001
ACAD
1000
AcDbSavedByObjectVersion
1070
     0
  0
VISUALSTYLE
  5
5B32
102
{ACAD_XDICTIONARY
360
CE15
102
}
102
{ACAD_REACTORS
330
5B1C
102
}
330
5B1C
100
AcDbVisualStyle
  2

 70
    20
 71
     2
 72
     2
 73
     0
 90
        0
 40
-0.6
 41
-30.0
 62
     5
 63
     7
 74
     1
 91
        4
 64
     7
 65
   257
 75
     1
175
     1
 42
1.0
 92
       10
 66
     7
 43
1.0
 76
     1
 77
     6
 78
     2
 67
     7
 79
     5
170
     0
171
     0
290
     0
174
     0
 93
        1
 44
0.0
173
     0
291
     1
 45
0.0
1001
ACAD
1000
AcDbSavedByObjectVersion
1070
     0
  0
VISUALSTYLE
  5
5B2A
102
{ACAD_XDICTIONARY
360
CE05
102
}
102
{ACAD_REACTORS
330
5B1C
102
}
330
5B1C
100
AcDbVisualStyle
  2

 70
    14
 71
     2
 72
     2
 73
     0
 90
        0
 40
-0.6
 41
-30.0
 62
     5
 63
     7
 74
     1
 91
        4
 64
     7
 65
   257
 75
     7
175
     7
 42
1.0
 92
        8
 66
     7
 43
1.0
 76
     1
 77
     6
 78
     2
 67
     7
 79
     5
170
     0
171
     0
290
     0
174
     0
 93
        1
 44
0.0
173
     0
291
     1
 45
0.0
1001
ACAD
1000
AcDbSavedByObjectVersion
1070
     0
  0
VISUALSTYLE
  5
5B33
102
{ACAD_XDICTIONARY
360
CE17
102
}
102
{ACAD_REACTORS
330
5B1C
102
}
330
5B1C
100
AcDbVisualStyle
  2

 70
    21
 71
     2
 72
     2
 73
     0
 90
        0
 40
-0.6
 41
-30.0
 62
     5
 63
     7
 74
     1
 91
        4
 64
     7
 65
   257
 75
     1
175
     1
 42
1.0
 92
        9
 66
     7
 43
1.0
 76
     1
 77
     6
 78
     2
 67
     7
 79
     5
170
     0
171
     0
290
     0
174
     0
 93
        1
 44
0.0
173
     0
291
     1
 45
0.0
1001
ACAD
1000
AcDbSavedByObjectVersion
1070
     0
  0
VISUALSTYLE
  5
5B26
102
{ACAD_XDICTIONARY
360
CDFD
102
}
102
{ACAD_REACTORS
330
5B1C
102
}
330
5B1C
100
AcDbVisualStyle
  2

 70
     8
 71
     2
 72
     2
 73
     0
 90
        2
 40
-0.6
 41
30.0
 62
     5
 63
     7
 74
     0
 91
        0
 64
     7
 65
   257
 75
     1
175
     1
 42
1.0
 92
        8
 66
   257
 43
1.0
 76
     1
 77
     6
 78
     2
 67
     7
 79
     3
170
     0
171
     0
290
     0
174
     0
 93
       13
 44
0.0
173
     0
291
     0
 45
0.0
1001
ACAD
1000
AcDbSavedByObjectVersion
1070
     0
  0
VISUALSTYLE
  5
5B31
102
{ACAD_XDICTIONARY
360
CE13
102
}
102
{ACAD_REACTORS
330
5B1C
102
}
330
5B1C
100
AcDbVisualStyle
  2

 70
    27
 71
     2
 72
     2
 73
     1
 90
        2
 40
-0.6
 41
30.0
 62
     5
 63
     7
 74
     0
 91
        4
 64
     7
 65
   257
 75
     1
175
     1
 42
1.0
 92
        8
 66
   257
 43
1.0
 76
     1
 77
     6
 78
     2
 67
     8
 79
     3
170
     0
171
     0
290
     0
174
     0
 93
        5
 44
0.0
173
     0
291
     0
 45
0.0
1001
ACAD
1000
AcDbSavedByObjectVersion
1070
     0
  0
VISUALSTYLE
  5
5B30
102
{ACAD_XDICTIONARY
360
CE11
102
}
102
{ACAD_REACTORS
330
5B1C
102
}
330
5B1C
100
AcDbVisualStyle
  2

 70
    26
 71
     2
 72
     2
 73
     1
 90
        2
 40
-0.6
 41
30.0
 62
     5
 63
     7
 74
     1
 91
       10
 64
     7
 65
   257
 75
     2
175
     1
 42
1.0
 92
        8
 66
   257
 43
1.0
 76
     1
 77
     6
 78
     2
 67
     7
 79
     3
170
     0
171
     0
290
     0
174
     0
 93
        5
 44
0.0
173
     0
291
     0
 45
0.0
1001
ACAD
1000
AcDbSavedByObjectVersion
1070
     0
  0
VISUALSTYLE
  5
5B2D
102
{ACAD_XDICTIONARY
360
CE0B
102
}
102
{ACAD_REACTORS
330
5B1C
102
}
330
5B1C
100
AcDbVisualStyle
  2

 70
    23
 71
     2
 72
     2
 73
     3
 90
        0
 40
-0.6
 41
-30.0
 62
     5
 63
     7
 74
     2
 91
        2
 64
     7
 65
     7
 75
     1
175
     1
 42
40.0
 92
        8
 66
     7
 43
1.0
 76
     1
 77
     6
 78
     2
 67
     7
 79
     3
170
     0
171
     0
290
     0
174
     0
 93
        1
 44
0.0
173
     0
291
     0
 45
0.0
1001
ACAD
1000
AcDbSavedByObjectVersion
1070
     0
  0
VISUALSTYLE
  5
5B2E
102
{ACAD_XDICTIONARY
360
CE0D
102
}
102
{ACAD_REACTORS
330
5B1C
102
}
330
5B1C
100
AcDbVisualStyle
  2

 70
    24
 71
     1
 72
     2
 73
     2
 90
        0
 40
-0.6
 41
-30.0
 62
     5
 63
     7
 74
     2
 91
        2
 64
     7
 65
     7
 75
     1
175
     1
 42
40.0
 92
       11
 66
     7
 43
1.0
 76
     1
 77
     6
 78
     2
 67
     7
 79
     6
170
     0
171
     0
290
     0
174
     0
 93
        1
 44
0.0
173
     0
291
     0
 45
0.0
1001
ACAD
1000
AcDbSavedByObjectVersion
1070
     0
  0
VISUALSTYLE
  5
5B29
102
{ACAD_XDICTIONARY
360
CE03
102
}
102
{ACAD_REACTORS
330
5B1C
102
}
330
5B1C
100
AcDbVisualStyle
  2

 70
    13
 71
     2
 72
     2
 73
     0
 90
        0
 40
-0.6
 41
-30.0
 62
     5
 63
     7
 74
     1
 91
        4
 64
     7
 65
   257
 75
     1
175
     1
 42
1.0
 92
       12
 66
     7
 43
1.0
 76
     1
 77
     6
 78
     2
 67
     7
 79
     5
170
     0
171
     0
290
     0
174
     0
 93
        1
 44
0.0
173
     0
291
     1
 45
0.0
1001
ACAD
1000
AcDbSavedByObjectVersion
1070
     0
  0
VISUALSTYLE
  5
5B23
102
{ACAD_XDICTIONARY
360
CDF7
102
}
102
{ACAD_REACTORS
330
5B1C
102
}
330
5B1C
100
AcDbVisualStyle
  2

 70
     5
 71
     0
 72
     2
 73
     0
 90
        0
 40
-0.6
 41
-30.0
 62
     5
 63
     7
 74
     1
 91
        4
 64
     7
 65
   257
 75
     1
175
     1
 42
1.0
 92
        0
 66
   257
 43
1.0
 76
     1
 77
     6
 78
     2
 67
     7
 79
     3
170
     0
171
     0
290
     0
174
     0
 93
        1
 44
0.0
173
     0
291
     0
 45
0.0
1001
ACAD
1000
AcDbSavedByObjectVersion
1070
     0
  0
VISUALSTYLE
  5
5B2F
102
{ACAD_XDICTIONARY
360
CE0F
102
}
102
{ACAD_REACTORS
330
5B1C
102
}
330
5B1C
100
AcDbVisualStyle
  2

 70
    25
 71
     2
 72
     2
 73
     1
 90
        1
 40
0.5
 41
-30.0
 62
     5
 63
     7
 74
     1
 91
        0
 64
     7
 65
   257
 75
     1
175
     1
 42
1.0
 92
        8
 66
     7
 43
1.0
 76
     1
 77
     6
 78
     2
 67
     7
 79
     3
170
     0
171
     0
290
     0
174
     0
 93
       13
 44
0.0
173
     0
291
     0
 45
0.0
1001
ACAD
1000
AcDbSavedByObjectVersion
1070
     0
  0
DICTIONARYVAR
  5
BC88
102
{ACAD_REACTORS
330
1BD7
102
}
330
1BD7
100
DictionaryVariables
280
     0
  1
1:1
  0
DICTIONARYVAR
  5
BC85
102
{ACAD_REACTORS
330
1BD7
102
}
330
1BD7
100
DictionaryVariables
280
     0
  1
STANDARD
  0
DICTIONARYVAR
  5
BC84
102
{ACAD_REACTORS
330
1BD7
102
}
330
1BD7
100
DictionaryVariables
280
     0
  1
STANDARD
  0
DICTIONARYVAR
  5
BC86
102
{ACAD_REACTORS
330
1BD7
102
}
330
1BD7
100
DictionaryVariables
280
     0
  1
Metric50
  0
DICTIONARYVAR
  5
BC87
102
{ACAD_REACTORS
330
1BD7
102
}
330
1BD7
100
DictionaryVariables
280
     0
  1
Metric50
  0
DICTIONARYVAR
  5
BC8A
102
{ACAD_REACTORS
330
1BD7
102
}
330
1BD7
100
DictionaryVariables
280
     0
  1
1
  0
DICTIONARYVAR
  5
BC89
102
{ACAD_REACTORS
330
1BD7
102
}
330
1BD7
100
DictionaryVariables
280
     0
  1
0
  0
DICTIONARYVAR
  5
1BD8
102
{ACAD_REACTORS
330
1BD7
102
}
330
1BD7
100
DictionaryVariables
280
     0
  1
96
  0
DICTIONARYVAR
  5
CDE1
102
{ACAD_REACTORS
330
1BD7
102
}
330
1BD7
100
DictionaryVariables
280
     0
  1
2
  0
ACDBASSOCNETWORK
  5
CD3A
102
{ACAD_REACTORS
330
CD39
102
}
330
CD39
100
AcDbAssocAction
 90
        1
 90
        1
330
CD3C
360
0
 90
        1
 90
        0
 90
        0
100
AcDbAssocNetwork
 90
        0
 90
        3
 90
        3
360
CD3D
360
CD94
360
CDC7
 90
        3
330
CD3D
330
CD94
330
CDC7
  0
XRECORD
  5
CE24
102
{ACAD_REACTORS
330
CE23
102
}
330
CE23
100
AcDbXrecord
280
     1
1070
     0
1070
     1
1070
     1
  0
XRECORD
  5
CE27
102
{ACAD_REACTORS
330
CE26
102
}
330
CE26
100
AcDbXrecord
280
     1
1070
     0
1070
     1
1070
     1
  0
XRECORD
  5
CE2A
102
{ACAD_REACTORS
330
CE29
102
}
330
CE29
100
AcDbXrecord
280
     1
1070
     0
1070
     1
1070
     1
  0
DICTIONARY
  5
CE20
330
5B4F
100
AcDbDictionary
280
     1
281
     1
  3
ACAD_XREC_ROUNDTRIP
360
CE21
  0
DICTIONARY
  5
CDE7
330
520
100
AcDbDictionary
280
     1
281
     1
  3
ACAD_XREC_ROUNDTRIP
360
CDE8
  0
DICTIONARY
  5
CDE9
330
526
100
AcDbDictionary
280
     1
281
     1
  3
ACAD_XREC_ROUNDTRIP
360
CDEA
  0
DICTIONARY
  5
CDE5
330
519
100
AcDbDictionary
280
     1
281
     1
  3
ACAD_XREC_ROUNDTRIP
360
CDE6
  0
DICTIONARY
  5
5B0D
330
5B0C
100
AcDbDictionary
280
     1
281
     1
  3
ACAD_XREC_ROUNDTRIP
360
CCA1
  3
BUMPTILE
360
5B0F
  3
DIFFUSETILE
360
5B0E
  3
OPACITYTILE
360
5B12
  3
REFLECTIONTILE
360
5B11
  3
REFRACTIONTILE
360
5B13
  3
SPECULARTILE
360
5B10
  0
DICTIONARY
  5
5B05
330
5B04
100
AcDbDictionary
280
     1
281
     1
  3
ACAD_XREC_ROUNDTRIP
360
CCA0
  3
BUMPTILE
360
5B07
  3
DIFFUSETILE
360
5B06
  3
OPACITYTILE
360
5B0A
  3
REFLECTIONTILE
360
5B09
  3
REFRACTIONTILE
360
5B0B
  3
SPECULARTILE
360
5B08
  0
DICTIONARY
  5
5B15
330
5B14
100
AcDbDictionary
280
     1
281
     1
  3
ACAD_XREC_ROUNDTRIP
360
CCA2
  3
BUMPTILE
360
5B17
  3
DIFFUSETILE
360
5B16
  3
OPACITYTILE
360
5B1A
  3
REFLECTIONTILE
360
5B19
  3
REFRACTIONTILE
360
5B1B
  3
SPECULARTILE
360
5B18
  0
DICTIONARY
  5
CE1C
330
5B4B
100
AcDbDictionary
280
     1
281
     1
  3
ACAD_XREC_ROUNDTRIP
360
CE1D
  0
DICTIONARY
  5
CE1E
330
5B4D
100
AcDbDictionary
280
     1
281
     1
  3
ACAD_XREC_ROUNDTRIP
360
CE1F
  0
DICTIONARY
  5
BC22
330
5B37
100
AcDbDictionary
280
     1
281
     1
  3
ACAD_ROUNDTRIP_2008_TABLESTYLE_CELLSTYLEMAP
360
CDE2
  3
ACAD_XREC_ROUNDTRIP
360
CE1B
  0
DICTIONARY
  5
CDF5
330
5B22
100
AcDbDictionary
280
     1
281
     1
  3
ACAD_XREC_ROUNDTRIP
360
CDF6
  0
DICTIONARY
  5
CDF3
330
5B21
100
AcDbDictionary
280
     1
281
     1
  3
ACAD_XREC_ROUNDTRIP
360
CDF4
  0
DICTIONARY
  5
CE01
330
5B28
100
AcDbDictionary
280
     1
281
     1
  3
ACAD_XREC_ROUNDTRIP
360
CE02
  0
DICTIONARY
  5
CE09
330
5B2C
100
AcDbDictionary
280
     1
281
     1
  3
ACAD_XREC_ROUNDTRIP
360
CE0A
  0
DICTIONARY
  5
CDFB
330
5B25
100
AcDbDictionary
280
     1
281
     1
  3
ACAD_XREC_ROUNDTRIP
360
CDFC
  0
DICTIONARY
  5
CDFF
330
5B27
100
AcDbDictionary
280
     1
281
     1
  3
ACAD_XREC_ROUNDTRIP
360
CE00
  0
DICTIONARY
  5
CE19
330
5B34
100
AcDbDictionary
280
     1
281
     1
  3
ACAD_XREC_ROUNDTRIP
360
CE1A
  0
DICTIONARY
  5
CE07
330
5B2B
100
AcDbDictionary
280
     1
281
     1
  3
ACAD_XREC_ROUNDTRIP
360
CE08
  0
DICTIONARY
  5
CDEB
330
5B1D
100
AcDbDictionary
280
     1
281
     1
  3
ACAD_XREC_ROUNDTRIP
360
CDEC
  0
DICTIONARY
  5
CDED
330
5B1E
100
AcDbDictionary
280
     1
281
     1
  3
ACAD_XREC_ROUNDTRIP
360
CDEE
  0
DICTIONARY
  5
CDEF
330
5B1F
100
AcDbDictionary
280
     1
281
     1
  3
ACAD_XREC_ROUNDTRIP
360
CDF0
  0
DICTIONARY
  5
CDF1
330
5B20
100
AcDbDictionary
280
     1
281
     1
  3
ACAD_XREC_ROUNDTRIP
360
CDF2
  0
DICTIONARY
  5
CDF9
330
5B24
100
AcDbDictionary
280
     1
281
     1
  3
ACAD_XREC_ROUNDTRIP
360
CDFA
  0
DICTIONARY
  5
CE15
330
5B32
100
AcDbDictionary
280
     1
281
     1
  3
ACAD_XREC_ROUNDTRIP
360
CE16
  0
DICTIONARY
  5
CE05
330
5B2A
100
AcDbDictionary
280
     1
281
     1
  3
ACAD_XREC_ROUNDTRIP
360
CE06
  0
DICTIONARY
  5
CE17
330
5B33
100
AcDbDictionary
280
     1
281
     1
  3
ACAD_XREC_ROUNDTRIP
360
CE18
  0
DICTIONARY
  5
CDFD
330
5B26
100
AcDbDictionary
280
     1
281
     1
  3
ACAD_XREC_ROUNDTRIP
360
CDFE
  0
DICTIONARY
  5
CE13
330
5B31
100
AcDbDictionary
280
     1
281
     1
  3
ACAD_XREC_ROUNDTRIP
360
CE14
  0
DICTIONARY
  5
CE11
330
5B30
100
AcDbDictionary
280
     1
281
     1
  3
ACAD_XREC_ROUNDTRIP
360
CE12
  0
DICTIONARY
  5
CE0B
330
5B2D
100
AcDbDictionary
280
     1
281
     1
  3
ACAD_XREC_ROUNDTRIP
360
CE0C
  0
DICTIONARY
  5
CE0D
330
5B2E
100
AcDbDictionary
280
     1
281
     1
  3
ACAD_XREC_ROUNDTRIP
360
CE0E
  0
DICTIONARY
  5
CE03
330
5B29
100
AcDbDictionary
280
     1
281
     1
  3
ACAD_XREC_ROUNDTRIP
360
CE04
  0
DICTIONARY
  5
CDF7
330
5B23
100
AcDbDictionary
280
     1
281
     1
  3
ACAD_XREC_ROUNDTRIP
360
CDF8
  0
DICTIONARY
  5
CE0F
330
5B2F
100
AcDbDictionary
280
     1
281
     1
  3
ACAD_XREC_ROUNDTRIP
360
CE10
  0
ACDBASSOCACTION
  5
CD3D
330
CD3A
100
AcDbAssocAction
 90
        1
 90
        1
330
CD3A
360
CD3E
 90
        1
 90
        3
 90
        3
360
CD41
360
CD42
360
CD43
  0
ACDBASSOCACTION
  5
CD94
330
CD3A
100
AcDbAssocAction
 90
        1
 90
        1
330
CD3A
360
CD95
 90
        2
 90
        3
 90
        3
360
CD98
360
CD99
360
CD9A
  0
ACDBASSOCACTION
  5
CDC7
330
CD3A
100
AcDbAssocAction
 90
        1
 90
        1
330
CD3A
360
CDC8
 90
        3
 90
        3
 90
        3
360
CDCB
360
CDCC
360
CDCD
  0
XRECORD
  5
CE21
102
{ACAD_REACTORS
330
CE20
102
}
330
CE20
100
AcDbXrecord
280
     1
102
DISPLAYNAME
  1
Metric50
102
FLAGS
 90
        0
  0
XRECORD
  5
CDE8
102
{ACAD_REACTORS
330
CDE7
102
}
330
CDE7
100
AcDbXrecord
280
     1
102
SHADEPLOT
 70
     0
102
SHADEPLOTRESLEVEL
 70
     2
102
SHADEPLOTCUSTOMDPI
 70
   300
  0
XRECORD
  5
CDEA
102
{ACAD_REACTORS
330
CDE9
102
}
330
CDE9
100
AcDbXrecord
280
     1
102
SHADEPLOT
 70
     0
102
SHADEPLOTRESLEVEL
 70
     2
102
SHADEPLOTCUSTOMDPI
 70
   300
  0
XRECORD
  5
CDE6
102
{ACAD_REACTORS
330
CDE5
102
}
330
CDE5
100
AcDbXrecord
280
     1
102
SHADEPLOT
 70
     0
102
SHADEPLOTRESLEVEL
 70
     2
102
SHADEPLOTCUSTOMDPI
 70
   300
  0
XRECORD
  5
CCA1
102
{ACAD_REACTORS
330
5B0D
102
}
330
5B0D
100
AcDbXrecord
280
     1
102
MATERIAL
148
0.0
149
0.0
149
0.0
 93
        0
 94
      127
282
     0
 72
     0
 77
     0
171
     0
175
     0
179
     0
273
     0
  0
XRECORD
  5
5B0F
102
{ACAD_REACTORS
330
5B0D
102
}
330
5B0D
100
AcDbXrecord
280
     1
270
     1
271
     1
  0
XRECORD
  5
5B0E
102
{ACAD_REACTORS
330
5B0D
102
}
330
5B0D
100
AcDbXrecord
280
     1
270
     1
271
     1
  0
XRECORD
  5
5B12
102
{ACAD_REACTORS
330
5B0D
102
}
330
5B0D
100
AcDbXrecord
280
     1
270
     1
271
     1
  0
XRECORD
  5
5B11
102
{ACAD_REACTORS
330
5B0D
102
}
330
5B0D
100
AcDbXrecord
280
     1
270
     1
271
     1
  0
XRECORD
  5
5B13
102
{ACAD_REACTORS
330
5B0D
102
}
330
5B0D
100
AcDbXrecord
280
     1
270
     1
271
     1
  0
XRECORD
  5
5B10
102
{ACAD_REACTORS
330
5B0D
102
}
330
5B0D
100
AcDbXrecord
280
     1
270
     1
271
     1
  0
XRECORD
  5
CCA0
102
{ACAD_REACTORS
330
5B05
102
}
330
5B05
100
AcDbXrecord
280
     1
102
MATERIAL
148
0.0
149
0.0
149
0.0
 93
        0
 94
      127
282
     0
 72
     0
 77
     0
171
     0
175
     0
179
     0
273
     0
  0
XRECORD
  5
5B07
102
{ACAD_REACTORS
330
5B05
102
}
330
5B05
100
AcDbXrecord
280
     1
270
     1
271
     1
  0
XRECORD
  5
5B06
102
{ACAD_REACTORS
330
5B05
102
}
330
5B05
100
AcDbXrecord
280
     1
270
     1
271
     1
  0
XRECORD
  5
5B0A
102
{ACAD_REACTORS
330
5B05
102
}
330
5B05
100
AcDbXrecord
280
     1
270
     1
271
     1
  0
XRECORD
  5
5B09
102
{ACAD_REACTORS
330
5B05
102
}
330
5B05
100
AcDbXrecord
280
     1
270
     1
271
     1
  0
XRECORD
  5
5B0B
102
{ACAD_REACTORS
330
5B05
102
}
330
5B05
100
AcDbXrecord
280
     1
270
     1
271
     1
  0
XRECORD
  5
5B08
102
{ACAD_REACTORS
330
5B05
102
}
330
5B05
100
AcDbXrecord
280
     1
270
     1
271
     1
  0
XRECORD
  5
CCA2
102
{ACAD_REACTORS
330
5B15
102
}
330
5B15
100
AcDbXrecord
280
     1
102
MATERIAL
148
0.0
149
0.0
149
0.0
 93
        0
 94
      127
282
     0
 72
     0
 77
     0
171
     0
175
     0
179
     0
273
     0
  0
XRECORD
  5
5B17
102
{ACAD_REACTORS
330
5B15
102
}
330
5B15
100
AcDbXrecord
280
     1
270
     1
271
     1
  0
XRECORD
  5
5B16
102
{ACAD_REACTORS
330
5B15
102
}
330
5B15
100
AcDbXrecord
280
     1
270
     1
271
     1
  0
XRECORD
  5
5B1A
102
{ACAD_REACTORS
330
5B15
102
}
330
5B15
100
AcDbXrecord
280
     1
270
     1
271
     1
  0
XRECORD
  5
5B19
102
{ACAD_REACTORS
330
5B15
102
}
330
5B15
100
AcDbXrecord
280
     1
270
     1
271
     1
  0
XRECORD
  5
5B1B
102
{ACAD_REACTORS
330
5B15
102
}
330
5B15
100
AcDbXrecord
280
     1
270
     1
271
     1
  0
XRECORD
  5
5B18
102
{ACAD_REACTORS
330
5B15
102
}
330
5B15
100
AcDbXrecord
280
     1
270
     1
271
     1
  0
XRECORD
  5
CE1D
102
{ACAD_REACTORS
330
CE1C
102
}
330
CE1C
100
AcDbXrecord
280
     1
102
ACAD_ROUNDTRIP_2012_MLEADER_STYLE
298
     1
  0
XRECORD
  5
CE1F
102
{ACAD_REACTORS
330
CE1E
102
}
330
CE1E
100
AcDbXrecord
280
     1
102
DISPLAYNAME
  1
Metric50
102
FLAGS
 90
        0
  0
CELLSTYLEMAP
  5
CDE2
102
{ACAD_REACTORS
330
BC22
102
}
330
BC22
100
AcDbCellStyleMap
 90
        3
300
CELLSTYLE
  1
TABLEFORMAT_BEGIN
 90
        5
170
     1
 91
        0
 92
    32768
 62
   257
 93
        1
300
CONTENTFORMAT
  1
CONTENTFORMAT_BEGIN
 90
        0
 91
        0
 92
      512
 93
        0
300

 40
0.0
140
1.0
 94
        5
 62
     0
340
9
144
6.0
309
CONTENTFORMAT_END
171
     1
301
MARGIN
  1
CELLMARGIN_BEGIN
 40
1.5
 40
1.5
 40
1.5
 40
1.5
 40
0.18
 40
0.18
309
CELLMARGIN_END
 94
        6
 95
        1
302
GRIDFORMAT
  1
GRIDFORMAT_BEGIN
 90
        0
 91
        1
 62
     0
 92
       -2
340
0
 93
        0
 40
1.125
309
GRIDFORMAT_END
 95
        2
302
GRIDFORMAT
  1
GRIDFORMAT_BEGIN
 90
        0
 91
        1
 62
     0
 92
       -2
340
0
 93
        0
 40
1.125
309
GRIDFORMAT_END
 95
        4
302
GRIDFORMAT
  1
GRIDFORMAT_BEGIN
 90
        0
 91
        1
 62
     0
 92
       -2
340
0
 93
        0
 40
1.125
309
GRIDFORMAT_END
 95
        8
302
GRIDFORMAT
  1
GRIDFORMAT_BEGIN
 90
        0
 91
        1
 62
     0
 92
       -2
340
0
 93
        0
 40
1.125
309
GRIDFORMAT_END
 95
       16
302
GRIDFORMAT
  1
GRIDFORMAT_BEGIN
 90
        0
 91
        1
 62
     0
 92
       -2
340
0
 93
        0
 40
1.125
309
GRIDFORMAT_END
 95
       32
302
GRIDFORMAT
  1
GRIDFORMAT_BEGIN
 90
        0
 91
        1
 62
     0
 92
       -2
340
0
 93
        0
 40
1.125
309
GRIDFORMAT_END
309
TABLEFORMAT_END
  1
CELLSTYLE_BEGIN
 90
        1
 91
        1
300
_TITLE
309
CELLSTYLE_END
300
CELLSTYLE
  1
TABLEFORMAT_BEGIN
 90
        5
170
     1
 91
        0
 92
        0
 62
   257
 93
        1
300
CONTENTFORMAT
  1
CONTENTFORMAT_BEGIN
 90
        0
 91
        0
 92
      512
 93
        0
300

 40
0.0
140
1.0
 94
        5
 62
     0
340
9
144
4.5
309
CONTENTFORMAT_END
171
     1
301
MARGIN
  1
CELLMARGIN_BEGIN
 40
1.5
 40
1.5
 40
1.5
 40
1.5
 40
0.18
 40
0.18
309
CELLMARGIN_END
 94
        6
 95
        1
302
GRIDFORMAT
  1
GRIDFORMAT_BEGIN
 90
        0
 91
        1
 62
     0
 92
       -2
340
0
 93
        0
 40
1.125
309
GRIDFORMAT_END
 95
        2
302
GRIDFORMAT
  1
GRIDFORMAT_BEGIN
 90
        0
 91
        1
 62
     0
 92
       -2
340
0
 93
        0
 40
1.125
309
GRIDFORMAT_END
 95
        4
302
GRIDFORMAT
  1
GRIDFORMAT_BEGIN
 90
        0
 91
        1
 62
     0
 92
       -2
340
0
 93
        0
 40
1.125
309
GRIDFORMAT_END
 95
        8
302
GRIDFORMAT
  1
GRIDFORMAT_BEGIN
 90
        0
 91
        1
 62
     0
 92
       -2
340
0
 93
        0
 40
1.125
309
GRIDFORMAT_END
 95
       16
302
GRIDFORMAT
  1
GRIDFORMAT_BEGIN
 90
        0
 91
        1
 62
     0
 92
       -2
340
0
 93
        0
 40
1.125
309
GRIDFORMAT_END
 95
       32
302
GRIDFORMAT
  1
GRIDFORMAT_BEGIN
 90
        0
 91
        1
 62
     0
 92
       -2
340
0
 93
        0
 40
1.125
309
GRIDFORMAT_END
309
TABLEFORMAT_END
  1
CELLSTYLE_BEGIN
 90
        2
 91
        1
300
_HEADER
309
CELLSTYLE_END
300
CELLSTYLE
  1
TABLEFORMAT_BEGIN
 90
        5
170
     1
 91
        0
 92
        0
 62
   257
 93
        1
300
CONTENTFORMAT
  1
CONTENTFORMAT_BEGIN
 90
        0
 91
        0
 92
      512
 93
        0
300

 40
0.0
140
1.0
 94
        2
 62
     0
340
9
144
4.5
309
CONTENTFORMAT_END
171
     1
301
MARGIN
  1
CELLMARGIN_BEGIN
 40
1.5
 40
1.5
 40
1.5
 40
1.5
 40
0.18
 40
0.18
309
CELLMARGIN_END
 94
        6
 95
        1
302
GRIDFORMAT
  1
GRIDFORMAT_BEGIN
 90
        0
 91
        1
 62
     0
 92
       -2
340
0
 93
        0
 40
1.125
309
GRIDFORMAT_END
 95
        2
302
GRIDFORMAT
  1
GRIDFORMAT_BEGIN
 90
        0
 91
        1
 62
     0
 92
       -2
340
0
 93
        0
 40
1.125
309
GRIDFORMAT_END
 95
        4
302
GRIDFORMAT
  1
GRIDFORMAT_BEGIN
 90
        0
 91
        1
 62
     0
 92
       -2
340
0
 93
        0
 40
1.125
309
GRIDFORMAT_END
 95
        8
302
GRIDFORMAT
  1
GRIDFORMAT_BEGIN
 90
        0
 91
        1
 62
     0
 92
       -2
340
0
 93
        0
 40
1.125
309
GRIDFORMAT_END
 95
       16
302
GRIDFORMAT
  1
GRIDFORMAT_BEGIN
 90
        0
 91
        1
 62
     0
 92
       -2
340
0
 93
        0
 40
1.125
309
GRIDFORMAT_END
 95
       32
302
GRIDFORMAT
  1
GRIDFORMAT_BEGIN
 90
        0
 91
        1
 62
     0
 92
       -2
340
0
 93
        0
 40
1.125
309
GRIDFORMAT_END
309
TABLEFORMAT_END
  1
CELLSTYLE_BEGIN
 90
        3
 91
        2
300
_DATA
309
CELLSTYLE_END
  0
XRECORD
  5
CE1B
102
{ACAD_REACTORS
330
BC22
102
}
330
BC22
100
AcDbXrecord
280
     1
102
ACAD_ROUNDTRIP_PRE2007_TABLESTYLE
 90
      512
 91
        0
  1

 92
      512
 93
        0
  2

 94
      512
 95
        0
  3

  0
XRECORD
  5
CDF6
102
{ACAD_REACTORS
330
CDF5
102
}
330
CDF5
100
AcDbXrecord
280
     1
102
RTVSPost2010Prop28
280
     1
102
RTVSPost2010PropOp28
 70
     1
102
RTVSPost2010Prop29
280
     1
102
RTVSPost2010PropOp29
 70
     1
102
RTVSPost2010Prop30
280
     0
102
RTVSPost2010PropOp30
 70
     1
102
RTVSPost2010Prop31
280
     0
102
RTVSPost2010PropOp31
 70
     1
102
RTVSPost2010Prop32
280
     0
102
RTVSPost2010PropOp32
 70
     1
102
RTVSPost2010Prop33
280
     0
102
RTVSPost2010PropOp33
 70
     1
102
RTVSPost2010Prop34
280
     0
102
RTVSPost2010PropOp34
 70
     1
102
RTVSPost2010Prop35
280
     0
102
RTVSPost2010PropOp35
 70
     1
102
RTVSPost2010Prop36
280
     0
102
RTVSPost2010PropOp36
 70
     1
102
RTVSPost2010Prop37
 90
       50
102
RTVSPost2010PropOp37
 70
     1
102
RTVSPost2010Prop38
140
0.0
102
RTVSPost2010PropOp38
 70
     1
102
RTVSPost2010Prop39
140
1.0
102
RTVSPost2010PropOp39
 70
     1
102
RTVSPost2010Prop40
 90
        0
102
RTVSPost2010PropOp40
 70
     1
102
RTVSPost2010Prop41ColorIndex
 90
       18
102
RTVSPost2010Prop41ColorRGB
 90
        0
102
RTVSPost2010PropOp41
 70
     1
102
RTVSPost2010Prop42
 90
       50
102
RTVSPost2010PropOp42
 70
     1
102
RTVSPost2010Prop43
 90
        3
102
RTVSPost2010PropOp43
 70
     1
102
RTVSPost2010Prop44ColorIndex
 90
        5
102
RTVSPost2010Prop44ColorRGB
 90
      255
102
RTVSPost2010PropOp44
 70
     1
102
RTVSPost2010Prop45
280
     0
102
RTVSPost2010PropOp45
 70
     1
102
RTVSPost2010Prop46
 90
       50
102
RTVSPost2010PropOp46
 70
     1
102
RTVSPost2010Prop47
 90
       50
102
RTVSPost2010PropOp47
 70
     1
102
RTVSPost2010Prop48
 90
       50
102
RTVSPost2010PropOp48
 70
     1
102
RTVSPost2010Prop49
280
     0
102
RTVSPost2010PropOp49
 70
     1
102
RTVSPost2010Prop50
 90
       50
102
RTVSPost2010PropOp50
 70
     1
102
RTVSPost2010Prop51ColorIndex
 90
      256
102
RTVSPost2010Prop51ColorRGB
 90
-16777216
102
RTVSPost2010PropOp51
 70
     0
102
RTVSPost2010Prop52
140
1.0
102
RTVSPost2010PropOp52
 70
     0
102
RTVSPost2010Prop53
 90
        2
102
RTVSPost2010PropOp53
 70
     1
102
RTVSPost2010Prop54
  1
strokes_ogs.tif
102
RTVSPost2010PropOp54
 70
     1
102
RTVSPost2010Prop55
280
     0
102
RTVSPost2010PropOp55
 70
     1
102
RTVSPost2010Prop56
140
1.0
102
RTVSPost2010PropOp56
 70
     1
102
RTVSPost2010Prop57
140
1.0
102
RTVSPost2010PropOp57
 70
     1
102
RTVSPropertyOp0
 70
     1
102
RTVSPropertyOp1
 70
     1
102
RTVSPropertyOp2
 70
     1
102
RTVSPropertyOp3
 70
     1
102
RTVSPropertyOp4
 70
     1
102
RTVSPropertyOp5
 70
     1
102
RTVSPropertyOp6
 70
     1
102
RTVSPropertyOp7
 70
     1
102
RTVSPropertyOp8
 70
     1
102
RTVSPropertyOp9
 70
     1
102
RTVSPropertyOp10
 70
     1
102
RTVSPropertyOp11
 70
     1
102
RTVSPropertyOp12
 70
     1
102
RTVSPropertyOp13
 70
     1
102
RTVSPropertyOp14
 70
     1
102
RTVSPropertyOp15
 70
     1
102
RTVSPropertyOp16
 70
     1
102
RTVSPropertyOp17
 70
     1
102
RTVSPropertyOp18
 70
     1
102
RTVSPropertyOp19
 70
     1
102
RTVSPropertyOp20
 70
     1
102
RTVSPropertyOp21
 70
     1
102
RTVSPropertyOp22
 70
     1
102
RTVSPropertyOp23
 70
     1
102
RTVSPropertyOp24
 70
     1
102
RTVSPropertyOp25
 70
     1
102
RTVSPropertyOp26
 70
     1
102
RTVSPropertyOp27
 70
     1
102
RTVSPropertyOp28
 70
     1
102
RTVSPropertyOp29
 70
     1
102
RTVSPropertyOp30
 70
     1
102
RTVSPropertyOp31
 70
     1
102
RTVSPropertyOp32
 70
     1
102
RTVSPropertyOp33
 70
     1
102
RTVSPropertyOp34
 70
     1
102
RTVSPropertyOp35
 70
     1
102
RTVSPropertyOp36
 70
     1
102
RTVSPropertyOp37
 70
     1
102
RTVSPropertyOp38
 70
     1
102
RTVSPropertyOp39
 70
     1
102
RTVSPropertyOp40
 70
     1
102
RTVSPropertyOp41
 70
     1
102
RTVSPropertyOp42
 70
     1
102
RTVSPropertyOp43
 70
     1
102
RTVSPropertyOp44
 70
     1
102
RTVSPropertyOp45
 70
     1
102
RTVSPropertyOp46
 70
     1
102
RTVSPropertyOp47
 70
     1
102
RTVSPropertyOp48
 70
     1
102
RTVSPropertyOp49
 70
     1
102
RTVSPropertyOp50
 70
     1
102
RTVSPropertyOp51
 70
     0
102
RTVSPropertyOp52
 70
     0
102
RTVSPropertyOp53
 70
     1
102
RTVSPropertyOp54
 70
     1
102
RTVSPropertyOp55
 70
     1
102
RTVSPropertyOp56
 70
     1
102
RTVSPropertyOp57
 70
     1
102
RTVSPropertyOp58
 70
     1
102
RTVSPropertyOp59
 70
     1
102
RTVSPropertyOp60
 70
     1
102
RTVSPropertyOp61
 70
     1
102
RTVSPropertyOp62
 70
     1
  0
XRECORD
  5
CDF4
102
{ACAD_REACTORS
330
CDF3
102
}
330
CDF3
100
AcDbXrecord
280
     1
102
RTVSPost2010Prop28
280
     0
102
RTVSPost2010PropOp28
 70
     1
102
RTVSPost2010Prop29
280
     1
102
RTVSPost2010PropOp29
 70
     1
102
RTVSPost2010Prop30
280
     1
102
RTVSPost2010PropOp30
 70
     1
102
RTVSPost2010Prop31
280
     0
102
RTVSPost2010PropOp31
 70
     1
102
RTVSPost2010Prop32
280
     0
102
RTVSPost2010PropOp32
 70
     1
102
RTVSPost2010Prop33
280
     0
102
RTVSPost2010PropOp33
 70
     1
102
RTVSPost2010Prop34
280
     0
102
RTVSPost2010PropOp34
 70
     1
102
RTVSPost2010Prop35
280
     0
102
RTVSPost2010PropOp35
 70
     1
102
RTVSPost2010Prop36
280
     0
102
RTVSPost2010PropOp36
 70
     1
102
RTVSPost2010Prop37
 90
       50
102
RTVSPost2010PropOp37
 70
     1
102
RTVSPost2010Prop38
140
0.0
102
RTVSPost2010PropOp38
 70
     1
102
RTVSPost2010Prop39
140
1.0
102
RTVSPost2010PropOp39
 70
     1
102
RTVSPost2010Prop40
 90
        0
102
RTVSPost2010PropOp40
 70
     1
102
RTVSPost2010Prop41ColorIndex
 90
       18
102
RTVSPost2010Prop41ColorRGB
 90
        0
102
RTVSPost2010PropOp41
 70
     1
102
RTVSPost2010Prop42
 90
       50
102
RTVSPost2010PropOp42
 70
     1
102
RTVSPost2010Prop43
 90
        3
102
RTVSPost2010PropOp43
 70
     1
102
RTVSPost2010Prop44ColorIndex
 90
        5
102
RTVSPost2010Prop44ColorRGB
 90
      255
102
RTVSPost2010PropOp44
 70
     1
102
RTVSPost2010Prop45
280
     0
102
RTVSPost2010PropOp45
 70
     1
102
RTVSPost2010Prop46
 90
       50
102
RTVSPost2010PropOp46
 70
     1
102
RTVSPost2010Prop47
 90
       50
102
RTVSPost2010PropOp47
 70
     1
102
RTVSPost2010Prop48
 90
       50
102
RTVSPost2010PropOp48
 70
     1
102
RTVSPost2010Prop49
280
     0
102
RTVSPost2010PropOp49
 70
     1
102
RTVSPost2010Prop50
 90
       50
102
RTVSPost2010PropOp50
 70
     1
102
RTVSPost2010Prop51ColorIndex
 90
      256
102
RTVSPost2010Prop51ColorRGB
 90
-16777216
102
RTVSPost2010PropOp51
 70
     0
102
RTVSPost2010Prop52
140
1.0
102
RTVSPost2010PropOp52
 70
     0
102
RTVSPost2010Prop53
 90
        2
102
RTVSPost2010PropOp53
 70
     1
102
RTVSPost2010Prop54
  1
strokes_ogs.tif
102
RTVSPost2010PropOp54
 70
     1
102
RTVSPost2010Prop55
280
     0
102
RTVSPost2010PropOp55
 70
     1
102
RTVSPost2010Prop56
140
1.0
102
RTVSPost2010PropOp56
 70
     1
102
RTVSPost2010Prop57
140
1.0
102
RTVSPost2010PropOp57
 70
     1
102
RTVSPropertyOp0
 70
     1
102
RTVSPropertyOp1
 70
     1
102
RTVSPropertyOp2
 70
     1
102
RTVSPropertyOp3
 70
     1
102
RTVSPropertyOp4
 70
     1
102
RTVSPropertyOp5
 70
     1
102
RTVSPropertyOp6
 70
     1
102
RTVSPropertyOp7
 70
     1
102
RTVSPropertyOp8
 70
     1
102
RTVSPropertyOp9
 70
     1
102
RTVSPropertyOp10
 70
     1
102
RTVSPropertyOp11
 70
     1
102
RTVSPropertyOp12
 70
     1
102
RTVSPropertyOp13
 70
     1
102
RTVSPropertyOp14
 70
     1
102
RTVSPropertyOp15
 70
     1
102
RTVSPropertyOp16
 70
     1
102
RTVSPropertyOp17
 70
     1
102
RTVSPropertyOp18
 70
     1
102
RTVSPropertyOp19
 70
     1
102
RTVSPropertyOp20
 70
     1
102
RTVSPropertyOp21
 70
     1
102
RTVSPropertyOp22
 70
     1
102
RTVSPropertyOp23
 70
     1
102
RTVSPropertyOp24
 70
     1
102
RTVSPropertyOp25
 70
     1
102
RTVSPropertyOp26
 70
     1
102
RTVSPropertyOp27
 70
     1
102
RTVSPropertyOp28
 70
     1
102
RTVSPropertyOp29
 70
     1
102
RTVSPropertyOp30
 70
     1
102
RTVSPropertyOp31
 70
     1
102
RTVSPropertyOp32
 70
     1
102
RTVSPropertyOp33
 70
     1
102
RTVSPropertyOp34
 70
     1
102
RTVSPropertyOp35
 70
     1
102
RTVSPropertyOp36
 70
     1
102
RTVSPropertyOp37
 70
     1
102
RTVSPropertyOp38
 70
     1
102
RTVSPropertyOp39
 70
     1
102
RTVSPropertyOp40
 70
     1
102
RTVSPropertyOp41
 70
     1
102
RTVSPropertyOp42
 70
     1
102
RTVSPropertyOp43
 70
     1
102
RTVSPropertyOp44
 70
     1
102
RTVSPropertyOp45
 70
     1
102
RTVSPropertyOp46
 70
     1
102
RTVSPropertyOp47
 70
     1
102
RTVSPropertyOp48
 70
     1
102
RTVSPropertyOp49
 70
     1
102
RTVSPropertyOp50
 70
     1
102
RTVSPropertyOp51
 70
     0
102
RTVSPropertyOp52
 70
     0
102
RTVSPropertyOp53
 70
     1
102
RTVSPropertyOp54
 70
     1
102
RTVSPropertyOp55
 70
     1
102
RTVSPropertyOp56
 70
     1
102
RTVSPropertyOp57
 70
     1
102
RTVSPropertyOp58
 70
     1
102
RTVSPropertyOp59
 70
     1
102
RTVSPropertyOp60
 70
     1
102
RTVSPropertyOp61
 70
     1
102
RTVSPropertyOp62
 70
     1
  0
XRECORD
  5
CE02
102
{ACAD_REACTORS
330
CE01
102
}
330
CE01
100
AcDbXrecord
280
     1
102
RTVSPost2010Prop28
280
     0
102
RTVSPost2010PropOp28
 70
     1
102
RTVSPost2010Prop29
280
     1
102
RTVSPost2010PropOp29
 70
     1
102
RTVSPost2010Prop30
280
     1
102
RTVSPost2010PropOp30
 70
     1
102
RTVSPost2010Prop31
280
     0
102
RTVSPost2010PropOp31
 70
     1
102
RTVSPost2010Prop32
280
     0
102
RTVSPost2010PropOp32
 70
     1
102
RTVSPost2010Prop33
280
     0
102
RTVSPost2010PropOp33
 70
     1
102
RTVSPost2010Prop34
280
     0
102
RTVSPost2010PropOp34
 70
     1
102
RTVSPost2010Prop35
280
     0
102
RTVSPost2010PropOp35
 70
     1
102
RTVSPost2010Prop36
280
     0
102
RTVSPost2010PropOp36
 70
     1
102
RTVSPost2010Prop37
 90
       50
102
RTVSPost2010PropOp37
 70
     1
102
RTVSPost2010Prop38
140
0.0
102
RTVSPost2010PropOp38
 70
     1
102
RTVSPost2010Prop39
140
1.0
102
RTVSPost2010PropOp39
 70
     1
102
RTVSPost2010Prop40
 90
        0
102
RTVSPost2010PropOp40
 70
     1
102
RTVSPost2010Prop41ColorIndex
 90
       18
102
RTVSPost2010Prop41ColorRGB
 90
        0
102
RTVSPost2010PropOp41
 70
     1
102
RTVSPost2010Prop42
 90
       50
102
RTVSPost2010PropOp42
 70
     1
102
RTVSPost2010Prop43
 90
        3
102
RTVSPost2010PropOp43
 70
     1
102
RTVSPost2010Prop44ColorIndex
 90
        5
102
RTVSPost2010Prop44ColorRGB
 90
      255
102
RTVSPost2010PropOp44
 70
     1
102
RTVSPost2010Prop45
280
     0
102
RTVSPost2010PropOp45
 70
     1
102
RTVSPost2010Prop46
 90
       50
102
RTVSPost2010PropOp46
 70
     1
102
RTVSPost2010Prop47
 90
       50
102
RTVSPost2010PropOp47
 70
     1
102
RTVSPost2010Prop48
 90
       50
102
RTVSPost2010PropOp48
 70
     1
102
RTVSPost2010Prop49
280
     0
102
RTVSPost2010PropOp49
 70
     1
102
RTVSPost2010Prop50
 90
       50
102
RTVSPost2010PropOp50
 70
     1
102
RTVSPost2010Prop51ColorIndex
 90
      256
102
RTVSPost2010Prop51ColorRGB
 90
-16777216
102
RTVSPost2010PropOp51
 70
     0
102
RTVSPost2010Prop52
140
1.0
102
RTVSPost2010PropOp52
 70
     0
102
RTVSPost2010Prop53
 90
        2
102
RTVSPost2010PropOp53
 70
     1
102
RTVSPost2010Prop54
  1
strokes_ogs.tif
102
RTVSPost2010PropOp54
 70
     1
102
RTVSPost2010Prop55
280
     0
102
RTVSPost2010PropOp55
 70
     1
102
RTVSPost2010Prop56
140
1.0
102
RTVSPost2010PropOp56
 70
     1
102
RTVSPost2010Prop57
140
1.0
102
RTVSPost2010PropOp57
 70
     1
102
RTVSPropertyOp0
 70
     1
102
RTVSPropertyOp1
 70
     1
102
RTVSPropertyOp2
 70
     1
102
RTVSPropertyOp3
 70
     1
102
RTVSPropertyOp4
 70
     1
102
RTVSPropertyOp5
 70
     1
102
RTVSPropertyOp6
 70
     1
102
RTVSPropertyOp7
 70
     1
102
RTVSPropertyOp8
 70
     1
102
RTVSPropertyOp9
 70
     1
102
RTVSPropertyOp10
 70
     1
102
RTVSPropertyOp11
 70
     1
102
RTVSPropertyOp12
 70
     1
102
RTVSPropertyOp13
 70
     1
102
RTVSPropertyOp14
 70
     1
102
RTVSPropertyOp15
 70
     1
102
RTVSPropertyOp16
 70
     1
102
RTVSPropertyOp17
 70
     1
102
RTVSPropertyOp18
 70
     1
102
RTVSPropertyOp19
 70
     1
102
RTVSPropertyOp20
 70
     1
102
RTVSPropertyOp21
 70
     1
102
RTVSPropertyOp22
 70
     1
102
RTVSPropertyOp23
 70
     1
102
RTVSPropertyOp24
 70
     1
102
RTVSPropertyOp25
 70
     1
102
RTVSPropertyOp26
 70
     1
102
RTVSPropertyOp27
 70
     1
102
RTVSPropertyOp28
 70
     1
102
RTVSPropertyOp29
 70
     1
102
RTVSPropertyOp30
 70
     1
102
RTVSPropertyOp31
 70
     1
102
RTVSPropertyOp32
 70
     1
102
RTVSPropertyOp33
 70
     1
102
RTVSPropertyOp34
 70
     1
102
RTVSPropertyOp35
 70
     1
102
RTVSPropertyOp36
 70
     1
102
RTVSPropertyOp37
 70
     1
102
RTVSPropertyOp38
 70
     1
102
RTVSPropertyOp39
 70
     1
102
RTVSPropertyOp40
 70
     1
102
RTVSPropertyOp41
 70
     1
102
RTVSPropertyOp42
 70
     1
102
RTVSPropertyOp43
 70
     1
102
RTVSPropertyOp44
 70
     1
102
RTVSPropertyOp45
 70
     1
102
RTVSPropertyOp46
 70
     1
102
RTVSPropertyOp47
 70
     1
102
RTVSPropertyOp48
 70
     1
102
RTVSPropertyOp49
 70
     1
102
RTVSPropertyOp50
 70
     1
102
RTVSPropertyOp51
 70
     0
102
RTVSPropertyOp52
 70
     0
102
RTVSPropertyOp53
 70
     1
102
RTVSPropertyOp54
 70
     1
102
RTVSPropertyOp55
 70
     1
102
RTVSPropertyOp56
 70
     1
102
RTVSPropertyOp57
 70
     1
102
RTVSPropertyOp58
 70
     1
102
RTVSPropertyOp59
 70
     1
102
RTVSPropertyOp60
 70
     1
102
RTVSPropertyOp61
 70
     1
102
RTVSPropertyOp62
 70
     1
  0
XRECORD
  5
CE0A
102
{ACAD_REACTORS
330
CE09
102
}
330
CE09
100
AcDbXrecord
280
     1
102
RTVSPost2010Prop28
280
     0
102
RTVSPost2010PropOp28
 70
     1
102
RTVSPost2010Prop29
280
     1
102
RTVSPost2010PropOp29
 70
     1
102
RTVSPost2010Prop30
280
     1
102
RTVSPost2010PropOp30
 70
     1
102
RTVSPost2010Prop31
280
     0
102
RTVSPost2010PropOp31
 70
     1
102
RTVSPost2010Prop32
280
     0
102
RTVSPost2010PropOp32
 70
     1
102
RTVSPost2010Prop33
280
     0
102
RTVSPost2010PropOp33
 70
     1
102
RTVSPost2010Prop34
280
     0
102
RTVSPost2010PropOp34
 70
     1
102
RTVSPost2010Prop35
280
     0
102
RTVSPost2010PropOp35
 70
     1
102
RTVSPost2010Prop36
280
     0
102
RTVSPost2010PropOp36
 70
     1
102
RTVSPost2010Prop37
 90
       50
102
RTVSPost2010PropOp37
 70
     1
102
RTVSPost2010Prop38
140
0.0
102
RTVSPost2010PropOp38
 70
     1
102
RTVSPost2010Prop39
140
1.0
102
RTVSPost2010PropOp39
 70
     1
102
RTVSPost2010Prop40
 90
        0
102
RTVSPost2010PropOp40
 70
     1
102
RTVSPost2010Prop41ColorIndex
 90
       18
102
RTVSPost2010Prop41ColorRGB
 90
        0
102
RTVSPost2010PropOp41
 70
     1
102
RTVSPost2010Prop42
 90
       50
102
RTVSPost2010PropOp42
 70
     1
102
RTVSPost2010Prop43
 90
        3
102
RTVSPost2010PropOp43
 70
     1
102
RTVSPost2010Prop44ColorIndex
 90
        5
102
RTVSPost2010Prop44ColorRGB
 90
      255
102
RTVSPost2010PropOp44
 70
     1
102
RTVSPost2010Prop45
280
     0
102
RTVSPost2010PropOp45
 70
     1
102
RTVSPost2010Prop46
 90
       50
102
RTVSPost2010PropOp46
 70
     1
102
RTVSPost2010Prop47
 90
       50
102
RTVSPost2010PropOp47
 70
     1
102
RTVSPost2010Prop48
 90
       50
102
RTVSPost2010PropOp48
 70
     1
102
RTVSPost2010Prop49
280
     0
102
RTVSPost2010PropOp49
 70
     1
102
RTVSPost2010Prop50
 90
       50
102
RTVSPost2010PropOp50
 70
     1
102
RTVSPost2010Prop51ColorIndex
 90
      256
102
RTVSPost2010Prop51ColorRGB
 90
-16777216
102
RTVSPost2010PropOp51
 70
     0
102
RTVSPost2010Prop52
140
1.0
102
RTVSPost2010PropOp52
 70
     0
102
RTVSPost2010Prop53
 90
        2
102
RTVSPost2010PropOp53
 70
     1
102
RTVSPost2010Prop54
  1
strokes_ogs.tif
102
RTVSPost2010PropOp54
 70
     1
102
RTVSPost2010Prop55
280
     0
102
RTVSPost2010PropOp55
 70
     1
102
RTVSPost2010Prop56
140
1.0
102
RTVSPost2010PropOp56
 70
     1
102
RTVSPost2010Prop57
140
1.0
102
RTVSPost2010PropOp57
 70
     1
102
RTVSPropertyOp0
 70
     1
102
RTVSPropertyOp1
 70
     1
102
RTVSPropertyOp2
 70
     1
102
RTVSPropertyOp3
 70
     1
102
RTVSPropertyOp4
 70
     1
102
RTVSPropertyOp5
 70
     1
102
RTVSPropertyOp6
 70
     1
102
RTVSPropertyOp7
 70
     1
102
RTVSPropertyOp8
 70
     1
102
RTVSPropertyOp9
 70
     1
102
RTVSPropertyOp10
 70
     1
102
RTVSPropertyOp11
 70
     1
102
RTVSPropertyOp12
 70
     1
102
RTVSPropertyOp13
 70
     1
102
RTVSPropertyOp14
 70
     1
102
RTVSPropertyOp15
 70
     1
102
RTVSPropertyOp16
 70
     1
102
RTVSPropertyOp17
 70
     1
102
RTVSPropertyOp18
 70
     1
102
RTVSPropertyOp19
 70
     1
102
RTVSPropertyOp20
 70
     1
102
RTVSPropertyOp21
 70
     1
102
RTVSPropertyOp22
 70
     1
102
RTVSPropertyOp23
 70
     1
102
RTVSPropertyOp24
 70
     1
102
RTVSPropertyOp25
 70
     1
102
RTVSPropertyOp26
 70
     1
102
RTVSPropertyOp27
 70
     1
102
RTVSPropertyOp28
 70
     1
102
RTVSPropertyOp29
 70
     1
102
RTVSPropertyOp30
 70
     1
102
RTVSPropertyOp31
 70
     1
102
RTVSPropertyOp32
 70
     1
102
RTVSPropertyOp33
 70
     1
102
RTVSPropertyOp34
 70
     1
102
RTVSPropertyOp35
 70
     1
102
RTVSPropertyOp36
 70
     1
102
RTVSPropertyOp37
 70
     1
102
RTVSPropertyOp38
 70
     1
102
RTVSPropertyOp39
 70
     1
102
RTVSPropertyOp40
 70
     1
102
RTVSPropertyOp41
 70
     1
102
RTVSPropertyOp42
 70
     1
102
RTVSPropertyOp43
 70
     1
102
RTVSPropertyOp44
 70
     1
102
RTVSPropertyOp45
 70
     1
102
RTVSPropertyOp46
 70
     1
102
RTVSPropertyOp47
 70
     1
102
RTVSPropertyOp48
 70
     1
102
RTVSPropertyOp49
 70
     1
102
RTVSPropertyOp50
 70
     1
102
RTVSPropertyOp51
 70
     0
102
RTVSPropertyOp52
 70
     0
102
RTVSPropertyOp53
 70
     1
102
RTVSPropertyOp54
 70
     1
102
RTVSPropertyOp55
 70
     1
102
RTVSPropertyOp56
 70
     1
102
RTVSPropertyOp57
 70
     1
102
RTVSPropertyOp58
 70
     1
102
RTVSPropertyOp59
 70
     1
102
RTVSPropertyOp60
 70
     1
102
RTVSPropertyOp61
 70
     1
102
RTVSPropertyOp62
 70
     1
  0
XRECORD
  5
CDFC
102
{ACAD_REACTORS
330
CDFB
102
}
330
CDFB
100
AcDbXrecord
280
     1
102
RTVSPost2010Prop28
280
     0
102
RTVSPost2010PropOp28
 70
     1
102
RTVSPost2010Prop29
280
     1
102
RTVSPost2010PropOp29
 70
     1
102
RTVSPost2010Prop30
280
     1
102
RTVSPost2010PropOp30
 70
     1
102
RTVSPost2010Prop31
280
     0
102
RTVSPost2010PropOp31
 70
     1
102
RTVSPost2010Prop32
280
     0
102
RTVSPost2010PropOp32
 70
     1
102
RTVSPost2010Prop33
280
     0
102
RTVSPost2010PropOp33
 70
     1
102
RTVSPost2010Prop34
280
     0
102
RTVSPost2010PropOp34
 70
     1
102
RTVSPost2010Prop35
280
     0
102
RTVSPost2010PropOp35
 70
     1
102
RTVSPost2010Prop36
280
     0
102
RTVSPost2010PropOp36
 70
     1
102
RTVSPost2010Prop37
 90
       50
102
RTVSPost2010PropOp37
 70
     1
102
RTVSPost2010Prop38
140
0.0
102
RTVSPost2010PropOp38
 70
     1
102
RTVSPost2010Prop39
140
1.0
102
RTVSPost2010PropOp39
 70
     1
102
RTVSPost2010Prop40
 90
        0
102
RTVSPost2010PropOp40
 70
     1
102
RTVSPost2010Prop41ColorIndex
 90
       18
102
RTVSPost2010Prop41ColorRGB
 90
        0
102
RTVSPost2010PropOp41
 70
     1
102
RTVSPost2010Prop42
 90
       50
102
RTVSPost2010PropOp42
 70
     1
102
RTVSPost2010Prop43
 90
        3
102
RTVSPost2010PropOp43
 70
     1
102
RTVSPost2010Prop44ColorIndex
 90
        5
102
RTVSPost2010Prop44ColorRGB
 90
      255
102
RTVSPost2010PropOp44
 70
     1
102
RTVSPost2010Prop45
280
     0
102
RTVSPost2010PropOp45
 70
     1
102
RTVSPost2010Prop46
 90
       50
102
RTVSPost2010PropOp46
 70
     1
102
RTVSPost2010Prop47
 90
       50
102
RTVSPost2010PropOp47
 70
     1
102
RTVSPost2010Prop48
 90
       50
102
RTVSPost2010PropOp48
 70
     1
102
RTVSPost2010Prop49
280
     0
102
RTVSPost2010PropOp49
 70
     1
102
RTVSPost2010Prop50
 90
       50
102
RTVSPost2010PropOp50
 70
     1
102
RTVSPost2010Prop51ColorIndex
 90
      256
102
RTVSPost2010Prop51ColorRGB
 90
-16777216
102
RTVSPost2010PropOp51
 70
     0
102
RTVSPost2010Prop52
140
1.0
102
RTVSPost2010PropOp52
 70
     0
102
RTVSPost2010Prop53
 90
        2
102
RTVSPost2010PropOp53
 70
     1
102
RTVSPost2010Prop54
  1
strokes_ogs.tif
102
RTVSPost2010PropOp54
 70
     1
102
RTVSPost2010Prop55
280
     0
102
RTVSPost2010PropOp55
 70
     1
102
RTVSPost2010Prop56
140
1.0
102
RTVSPost2010PropOp56
 70
     1
102
RTVSPost2010Prop57
140
1.0
102
RTVSPost2010PropOp57
 70
     1
102
RTVSPropertyOp0
 70
     1
102
RTVSPropertyOp1
 70
     1
102
RTVSPropertyOp2
 70
     1
102
RTVSPropertyOp3
 70
     1
102
RTVSPropertyOp4
 70
     1
102
RTVSPropertyOp5
 70
     1
102
RTVSPropertyOp6
 70
     1
102
RTVSPropertyOp7
 70
     1
102
RTVSPropertyOp8
 70
     1
102
RTVSPropertyOp9
 70
     1
102
RTVSPropertyOp10
 70
     1
102
RTVSPropertyOp11
 70
     1
102
RTVSPropertyOp12
 70
     1
102
RTVSPropertyOp13
 70
     1
102
RTVSPropertyOp14
 70
     1
102
RTVSPropertyOp15
 70
     1
102
RTVSPropertyOp16
 70
     1
102
RTVSPropertyOp17
 70
     1
102
RTVSPropertyOp18
 70
     1
102
RTVSPropertyOp19
 70
     1
102
RTVSPropertyOp20
 70
     1
102
RTVSPropertyOp21
 70
     1
102
RTVSPropertyOp22
 70
     1
102
RTVSPropertyOp23
 70
     1
102
RTVSPropertyOp24
 70
     1
102
RTVSPropertyOp25
 70
     1
102
RTVSPropertyOp26
 70
     1
102
RTVSPropertyOp27
 70
     1
102
RTVSPropertyOp28
 70
     1
102
RTVSPropertyOp29
 70
     1
102
RTVSPropertyOp30
 70
     1
102
RTVSPropertyOp31
 70
     1
102
RTVSPropertyOp32
 70
     1
102
RTVSPropertyOp33
 70
     1
102
RTVSPropertyOp34
 70
     1
102
RTVSPropertyOp35
 70
     1
102
RTVSPropertyOp36
 70
     1
102
RTVSPropertyOp37
 70
     1
102
RTVSPropertyOp38
 70
     1
102
RTVSPropertyOp39
 70
     1
102
RTVSPropertyOp40
 70
     1
102
RTVSPropertyOp41
 70
     1
102
RTVSPropertyOp42
 70
     1
102
RTVSPropertyOp43
 70
     1
102
RTVSPropertyOp44
 70
     1
102
RTVSPropertyOp45
 70
     1
102
RTVSPropertyOp46
 70
     1
102
RTVSPropertyOp47
 70
     1
102
RTVSPropertyOp48
 70
     1
102
RTVSPropertyOp49
 70
     1
102
RTVSPropertyOp50
 70
     1
102
RTVSPropertyOp51
 70
     0
102
RTVSPropertyOp52
 70
     0
102
RTVSPropertyOp53
 70
     1
102
RTVSPropertyOp54
 70
     1
102
RTVSPropertyOp55
 70
     1
102
RTVSPropertyOp56
 70
     1
102
RTVSPropertyOp57
 70
     1
102
RTVSPropertyOp58
 70
     1
102
RTVSPropertyOp59
 70
     1
102
RTVSPropertyOp60
 70
     1
102
RTVSPropertyOp61
 70
     1
102
RTVSPropertyOp62
 70
     1
  0
XRECORD
  5
CE00
102
{ACAD_REACTORS
330
CDFF
102
}
330
CDFF
100
AcDbXrecord
280
     1
102
RTVSPost2010Prop28
280
     0
102
RTVSPost2010PropOp28
 70
     1
102
RTVSPost2010Prop29
280
     1
102
RTVSPost2010PropOp29
 70
     1
102
RTVSPost2010Prop30
280
     1
102
RTVSPost2010PropOp30
 70
     1
102
RTVSPost2010Prop31
280
     0
102
RTVSPost2010PropOp31
 70
     1
102
RTVSPost2010Prop32
280
     0
102
RTVSPost2010PropOp32
 70
     1
102
RTVSPost2010Prop33
280
     0
102
RTVSPost2010PropOp33
 70
     1
102
RTVSPost2010Prop34
280
     0
102
RTVSPost2010PropOp34
 70
     1
102
RTVSPost2010Prop35
280
     0
102
RTVSPost2010PropOp35
 70
     1
102
RTVSPost2010Prop36
280
     0
102
RTVSPost2010PropOp36
 70
     1
102
RTVSPost2010Prop37
 90
       50
102
RTVSPost2010PropOp37
 70
     1
102
RTVSPost2010Prop38
140
0.0
102
RTVSPost2010PropOp38
 70
     1
102
RTVSPost2010Prop39
140
1.0
102
RTVSPost2010PropOp39
 70
     1
102
RTVSPost2010Prop40
 90
        0
102
RTVSPost2010PropOp40
 70
     1
102
RTVSPost2010Prop41ColorIndex
 90
       18
102
RTVSPost2010Prop41ColorRGB
 90
        0
102
RTVSPost2010PropOp41
 70
     1
102
RTVSPost2010Prop42
 90
       50
102
RTVSPost2010PropOp42
 70
     1
102
RTVSPost2010Prop43
 90
        3
102
RTVSPost2010PropOp43
 70
     1
102
RTVSPost2010Prop44ColorIndex
 90
        5
102
RTVSPost2010Prop44ColorRGB
 90
      255
102
RTVSPost2010PropOp44
 70
     1
102
RTVSPost2010Prop45
280
     0
102
RTVSPost2010PropOp45
 70
     1
102
RTVSPost2010Prop46
 90
       50
102
RTVSPost2010PropOp46
 70
     1
102
RTVSPost2010Prop47
 90
       50
102
RTVSPost2010PropOp47
 70
     1
102
RTVSPost2010Prop48
 90
       50
102
RTVSPost2010PropOp48
 70
     1
102
RTVSPost2010Prop49
280
     0
102
RTVSPost2010PropOp49
 70
     1
102
RTVSPost2010Prop50
 90
       50
102
RTVSPost2010PropOp50
 70
     1
102
RTVSPost2010Prop51ColorIndex
 90
      256
102
RTVSPost2010Prop51ColorRGB
 90
-16777216
102
RTVSPost2010PropOp51
 70
     0
102
RTVSPost2010Prop52
140
1.0
102
RTVSPost2010PropOp52
 70
     0
102
RTVSPost2010Prop53
 90
        2
102
RTVSPost2010PropOp53
 70
     1
102
RTVSPost2010Prop54
  1
strokes_ogs.tif
102
RTVSPost2010PropOp54
 70
     1
102
RTVSPost2010Prop55
280
     0
102
RTVSPost2010PropOp55
 70
     1
102
RTVSPost2010Prop56
140
1.0
102
RTVSPost2010PropOp56
 70
     1
102
RTVSPost2010Prop57
140
1.0
102
RTVSPost2010PropOp57
 70
     1
102
RTVSPropertyOp0
 70
     1
102
RTVSPropertyOp1
 70
     1
102
RTVSPropertyOp2
 70
     1
102
RTVSPropertyOp3
 70
     1
102
RTVSPropertyOp4
 70
     1
102
RTVSPropertyOp5
 70
     1
102
RTVSPropertyOp6
 70
     1
102
RTVSPropertyOp7
 70
     1
102
RTVSPropertyOp8
 70
     1
102
RTVSPropertyOp9
 70
     1
102
RTVSPropertyOp10
 70
     1
102
RTVSPropertyOp11
 70
     1
102
RTVSPropertyOp12
 70
     1
102
RTVSPropertyOp13
 70
     1
102
RTVSPropertyOp14
 70
     1
102
RTVSPropertyOp15
 70
     1
102
RTVSPropertyOp16
 70
     1
102
RTVSPropertyOp17
 70
     1
102
RTVSPropertyOp18
 70
     1
102
RTVSPropertyOp19
 70
     1
102
RTVSPropertyOp20
 70
     1
102
RTVSPropertyOp21
 70
     1
102
RTVSPropertyOp22
 70
     1
102
RTVSPropertyOp23
 70
     1
102
RTVSPropertyOp24
 70
     1
102
RTVSPropertyOp25
 70
     1
102
RTVSPropertyOp26
 70
     1
102
RTVSPropertyOp27
 70
     1
102
RTVSPropertyOp28
 70
     1
102
RTVSPropertyOp29
 70
     1
102
RTVSPropertyOp30
 70
     1
102
RTVSPropertyOp31
 70
     1
102
RTVSPropertyOp32
 70
     1
102
RTVSPropertyOp33
 70
     1
102
RTVSPropertyOp34
 70
     1
102
RTVSPropertyOp35
 70
     1
102
RTVSPropertyOp36
 70
     1
102
RTVSPropertyOp37
 70
     1
102
RTVSPropertyOp38
 70
     1
102
RTVSPropertyOp39
 70
     1
102
RTVSPropertyOp40
 70
     1
102
RTVSPropertyOp41
 70
     1
102
RTVSPropertyOp42
 70
     1
102
RTVSPropertyOp43
 70
     1
102
RTVSPropertyOp44
 70
     1
102
RTVSPropertyOp45
 70
     1
102
RTVSPropertyOp46
 70
     1
102
RTVSPropertyOp47
 70
     1
102
RTVSPropertyOp48
 70
     1
102
RTVSPropertyOp49
 70
     1
102
RTVSPropertyOp50
 70
     1
102
RTVSPropertyOp51
 70
     0
102
RTVSPropertyOp52
 70
     0
102
RTVSPropertyOp53
 70
     1
102
RTVSPropertyOp54
 70
     1
102
RTVSPropertyOp55
 70
     1
102
RTVSPropertyOp56
 70
     1
102
RTVSPropertyOp57
 70
     1
102
RTVSPropertyOp58
 70
     1
102
RTVSPropertyOp59
 70
     1
102
RTVSPropertyOp60
 70
     1
102
RTVSPropertyOp61
 70
     1
102
RTVSPropertyOp62
 70
     1
  0
XRECORD
  5
CE1A
102
{ACAD_REACTORS
330
CE19
102
}
330
CE19
100
AcDbXrecord
280
     1
102
RTVSPost2010Prop28
280
     0
102
RTVSPost2010PropOp28
 70
     0
102
RTVSPost2010Prop29
280
     1
102
RTVSPost2010PropOp29
 70
     0
102
RTVSPost2010Prop30
280
     1
102
RTVSPost2010PropOp30
 70
     0
102
RTVSPost2010Prop31
280
     0
102
RTVSPost2010PropOp31
 70
     0
102
RTVSPost2010Prop32
280
     0
102
RTVSPost2010PropOp32
 70
     0
102
RTVSPost2010Prop33
280
     0
102
RTVSPost2010PropOp33
 70
     0
102
RTVSPost2010Prop34
280
     0
102
RTVSPost2010PropOp34
 70
     0
102
RTVSPost2010Prop35
280
     0
102
RTVSPost2010PropOp35
 70
     0
102
RTVSPost2010Prop36
280
     0
102
RTVSPost2010PropOp36
 70
     0
102
RTVSPost2010Prop37
 90
       50
102
RTVSPost2010PropOp37
 70
     0
102
RTVSPost2010Prop38
140
0.0
102
RTVSPost2010PropOp38
 70
     0
102
RTVSPost2010Prop39
140
1.0
102
RTVSPost2010PropOp39
 70
     0
102
RTVSPost2010Prop40
 90
        0
102
RTVSPost2010PropOp40
 70
     0
102
RTVSPost2010Prop41ColorIndex
 90
       18
102
RTVSPost2010Prop41ColorRGB
 90
        0
102
RTVSPost2010PropOp41
 70
     0
102
RTVSPost2010Prop42
 90
       50
102
RTVSPost2010PropOp42
 70
     0
102
RTVSPost2010Prop43
 90
        3
102
RTVSPost2010PropOp43
 70
     0
102
RTVSPost2010Prop44ColorIndex
 90
        5
102
RTVSPost2010Prop44ColorRGB
 90
      255
102
RTVSPost2010PropOp44
 70
     0
102
RTVSPost2010Prop45
280
     0
102
RTVSPost2010PropOp45
 70
     0
102
RTVSPost2010Prop46
 90
       50
102
RTVSPost2010PropOp46
 70
     0
102
RTVSPost2010Prop47
 90
       50
102
RTVSPost2010PropOp47
 70
     0
102
RTVSPost2010Prop48
 90
       50
102
RTVSPost2010PropOp48
 70
     0
102
RTVSPost2010Prop49
280
     0
102
RTVSPost2010PropOp49
 70
     0
102
RTVSPost2010Prop50
 90
       50
102
RTVSPost2010PropOp50
 70
     0
102
RTVSPost2010Prop51ColorIndex
 90
      256
102
RTVSPost2010Prop51ColorRGB
 90
-16777216
102
RTVSPost2010PropOp51
 70
     0
102
RTVSPost2010Prop52
140
1.0
102
RTVSPost2010PropOp52
 70
     0
102
RTVSPost2010Prop53
 90
        2
102
RTVSPost2010PropOp53
 70
     0
102
RTVSPost2010Prop54
  1
strokes_ogs.tif
102
RTVSPost2010PropOp54
 70
     0
102
RTVSPost2010Prop55
280
     0
102
RTVSPost2010PropOp55
 70
     0
102
RTVSPost2010Prop56
140
1.0
102
RTVSPost2010PropOp56
 70
     0
102
RTVSPost2010Prop57
140
1.0
102
RTVSPost2010PropOp57
 70
     0
102
RTVSPropertyOp0
 70
     0
102
RTVSPropertyOp1
 70
     0
102
RTVSPropertyOp2
 70
     0
102
RTVSPropertyOp3
 70
     0
102
RTVSPropertyOp4
 70
     0
102
RTVSPropertyOp5
 70
     0
102
RTVSPropertyOp6
 70
     0
102
RTVSPropertyOp7
 70
     0
102
RTVSPropertyOp8
 70
     0
102
RTVSPropertyOp9
 70
     0
102
RTVSPropertyOp10
 70
     0
102
RTVSPropertyOp11
 70
     0
102
RTVSPropertyOp12
 70
     0
102
RTVSPropertyOp13
 70
     0
102
RTVSPropertyOp14
 70
     2
102
RTVSPropertyOp15
 70
     0
102
RTVSPropertyOp16
 70
     0
102
RTVSPropertyOp17
 70
     0
102
RTVSPropertyOp18
 70
     0
102
RTVSPropertyOp19
 70
     0
102
RTVSPropertyOp20
 70
     0
102
RTVSPropertyOp21
 70
     0
102
RTVSPropertyOp22
 70
     0
102
RTVSPropertyOp23
 70
     0
102
RTVSPropertyOp24
 70
     0
102
RTVSPropertyOp25
 70
     0
102
RTVSPropertyOp26
 70
     0
102
RTVSPropertyOp27
 70
     0
102
RTVSPropertyOp28
 70
     0
102
RTVSPropertyOp29
 70
     0
102
RTVSPropertyOp30
 70
     0
102
RTVSPropertyOp31
 70
     0
102
RTVSPropertyOp32
 70
     0
102
RTVSPropertyOp33
 70
     0
102
RTVSPropertyOp34
 70
     0
102
RTVSPropertyOp35
 70
     0
102
RTVSPropertyOp36
 70
     0
102
RTVSPropertyOp37
 70
     0
102
RTVSPropertyOp38
 70
     0
102
RTVSPropertyOp39
 70
     0
102
RTVSPropertyOp40
 70
     0
102
RTVSPropertyOp41
 70
     0
102
RTVSPropertyOp42
 70
     0
102
RTVSPropertyOp43
 70
     0
102
RTVSPropertyOp44
 70
     0
102
RTVSPropertyOp45
 70
     0
102
RTVSPropertyOp46
 70
     0
102
RTVSPropertyOp47
 70
     0
102
RTVSPropertyOp48
 70
     0
102
RTVSPropertyOp49
 70
     0
102
RTVSPropertyOp50
 70
     0
102
RTVSPropertyOp51
 70
     0
102
RTVSPropertyOp52
 70
     0
102
RTVSPropertyOp53
 70
     0
102
RTVSPropertyOp54
 70
     0
102
RTVSPropertyOp55
 70
     0
102
RTVSPropertyOp56
 70
     0
102
RTVSPropertyOp57
 70
     0
102
RTVSPropertyOp58
 70
     0
102
RTVSPropertyOp59
 70
     0
102
RTVSPropertyOp60
 70
     0
102
RTVSPropertyOp61
 70
     0
102
RTVSPropertyOp62
 70
     0
  0
XRECORD
  5
CE08
102
{ACAD_REACTORS
330
CE07
102
}
330
CE07
100
AcDbXrecord
280
     1
102
RTVSPost2010Prop28
280
     0
102
RTVSPost2010PropOp28
 70
     1
102
RTVSPost2010Prop29
280
     1
102
RTVSPost2010PropOp29
 70
     1
102
RTVSPost2010Prop30
280
     1
102
RTVSPost2010PropOp30
 70
     1
102
RTVSPost2010Prop31
280
     0
102
RTVSPost2010PropOp31
 70
     1
102
RTVSPost2010Prop32
280
     0
102
RTVSPost2010PropOp32
 70
     1
102
RTVSPost2010Prop33
280
     0
102
RTVSPost2010PropOp33
 70
     1
102
RTVSPost2010Prop34
280
     0
102
RTVSPost2010PropOp34
 70
     1
102
RTVSPost2010Prop35
280
     0
102
RTVSPost2010PropOp35
 70
     1
102
RTVSPost2010Prop36
280
     0
102
RTVSPost2010PropOp36
 70
     1
102
RTVSPost2010Prop37
 90
       50
102
RTVSPost2010PropOp37
 70
     1
102
RTVSPost2010Prop38
140
0.0
102
RTVSPost2010PropOp38
 70
     1
102
RTVSPost2010Prop39
140
1.0
102
RTVSPost2010PropOp39
 70
     1
102
RTVSPost2010Prop40
 90
        0
102
RTVSPost2010PropOp40
 70
     1
102
RTVSPost2010Prop41ColorIndex
 90
       18
102
RTVSPost2010Prop41ColorRGB
 90
        0
102
RTVSPost2010PropOp41
 70
     1
102
RTVSPost2010Prop42
 90
       50
102
RTVSPost2010PropOp42
 70
     1
102
RTVSPost2010Prop43
 90
        3
102
RTVSPost2010PropOp43
 70
     1
102
RTVSPost2010Prop44ColorIndex
 90
        5
102
RTVSPost2010Prop44ColorRGB
 90
      255
102
RTVSPost2010PropOp44
 70
     1
102
RTVSPost2010Prop45
280
     0
102
RTVSPost2010PropOp45
 70
     1
102
RTVSPost2010Prop46
 90
       50
102
RTVSPost2010PropOp46
 70
     1
102
RTVSPost2010Prop47
 90
       50
102
RTVSPost2010PropOp47
 70
     1
102
RTVSPost2010Prop48
 90
       50
102
RTVSPost2010PropOp48
 70
     1
102
RTVSPost2010Prop49
280
     0
102
RTVSPost2010PropOp49
 70
     1
102
RTVSPost2010Prop50
 90
       50
102
RTVSPost2010PropOp50
 70
     1
102
RTVSPost2010Prop51ColorIndex
 90
      256
102
RTVSPost2010Prop51ColorRGB
 90
-16777216
102
RTVSPost2010PropOp51
 70
     0
102
RTVSPost2010Prop52
140
1.0
102
RTVSPost2010PropOp52
 70
     0
102
RTVSPost2010Prop53
 90
        2
102
RTVSPost2010PropOp53
 70
     1
102
RTVSPost2010Prop54
  1
strokes_ogs.tif
102
RTVSPost2010PropOp54
 70
     1
102
RTVSPost2010Prop55
280
     0
102
RTVSPost2010PropOp55
 70
     1
102
RTVSPost2010Prop56
140
1.0
102
RTVSPost2010PropOp56
 70
     1
102
RTVSPost2010Prop57
140
1.0
102
RTVSPost2010PropOp57
 70
     1
102
RTVSPropertyOp0
 70
     1
102
RTVSPropertyOp1
 70
     1
102
RTVSPropertyOp2
 70
     1
102
RTVSPropertyOp3
 70
     1
102
RTVSPropertyOp4
 70
     1
102
RTVSPropertyOp5
 70
     1
102
RTVSPropertyOp6
 70
     1
102
RTVSPropertyOp7
 70
     1
102
RTVSPropertyOp8
 70
     1
102
RTVSPropertyOp9
 70
     1
102
RTVSPropertyOp10
 70
     1
102
RTVSPropertyOp11
 70
     1
102
RTVSPropertyOp12
 70
     1
102
RTVSPropertyOp13
 70
     1
102
RTVSPropertyOp14
 70
     1
102
RTVSPropertyOp15
 70
     1
102
RTVSPropertyOp16
 70
     1
102
RTVSPropertyOp17
 70
     1
102
RTVSPropertyOp18
 70
     1
102
RTVSPropertyOp19
 70
     1
102
RTVSPropertyOp20
 70
     1
102
RTVSPropertyOp21
 70
     1
102
RTVSPropertyOp22
 70
     1
102
RTVSPropertyOp23
 70
     1
102
RTVSPropertyOp24
 70
     1
102
RTVSPropertyOp25
 70
     1
102
RTVSPropertyOp26
 70
     1
102
RTVSPropertyOp27
 70
     1
102
RTVSPropertyOp28
 70
     1
102
RTVSPropertyOp29
 70
     1
102
RTVSPropertyOp30
 70
     1
102
RTVSPropertyOp31
 70
     1
102
RTVSPropertyOp32
 70
     1
102
RTVSPropertyOp33
 70
     1
102
RTVSPropertyOp34
 70
     1
102
RTVSPropertyOp35
 70
     1
102
RTVSPropertyOp36
 70
     1
102
RTVSPropertyOp37
 70
     1
102
RTVSPropertyOp38
 70
     1
102
RTVSPropertyOp39
 70
     1
102
RTVSPropertyOp40
 70
     1
102
RTVSPropertyOp41
 70
     1
102
RTVSPropertyOp42
 70
     1
102
RTVSPropertyOp43
 70
     1
102
RTVSPropertyOp44
 70
     1
102
RTVSPropertyOp45
 70
     1
102
RTVSPropertyOp46
 70
     1
102
RTVSPropertyOp47
 70
     1
102
RTVSPropertyOp48
 70
     1
102
RTVSPropertyOp49
 70
     1
102
RTVSPropertyOp50
 70
     1
102
RTVSPropertyOp51
 70
     0
102
RTVSPropertyOp52
 70
     0
102
RTVSPropertyOp53
 70
     1
102
RTVSPropertyOp54
 70
     1
102
RTVSPropertyOp55
 70
     1
102
RTVSPropertyOp56
 70
     1
102
RTVSPropertyOp57
 70
     1
102
RTVSPropertyOp58
 70
     1
102
RTVSPropertyOp59
 70
     1
102
RTVSPropertyOp60
 70
     1
102
RTVSPropertyOp61
 70
     1
102
RTVSPropertyOp62
 70
     1
  0
XRECORD
  5
CDEC
102
{ACAD_REACTORS
330
CDEB
102
}
330
CDEB
100
AcDbXrecord
280
     1
102
RTVSPost2010Prop28
280
     0
102
RTVSPost2010PropOp28
 70
     1
102
RTVSPost2010Prop29
280
     1
102
RTVSPost2010PropOp29
 70
     1
102
RTVSPost2010Prop30
280
     1
102
RTVSPost2010PropOp30
 70
     1
102
RTVSPost2010Prop31
280
     0
102
RTVSPost2010PropOp31
 70
     1
102
RTVSPost2010Prop32
280
     0
102
RTVSPost2010PropOp32
 70
     1
102
RTVSPost2010Prop33
280
     0
102
RTVSPost2010PropOp33
 70
     1
102
RTVSPost2010Prop34
280
     0
102
RTVSPost2010PropOp34
 70
     1
102
RTVSPost2010Prop35
280
     0
102
RTVSPost2010PropOp35
 70
     1
102
RTVSPost2010Prop36
280
     0
102
RTVSPost2010PropOp36
 70
     1
102
RTVSPost2010Prop37
 90
       50
102
RTVSPost2010PropOp37
 70
     1
102
RTVSPost2010Prop38
140
0.0
102
RTVSPost2010PropOp38
 70
     1
102
RTVSPost2010Prop39
140
1.0
102
RTVSPost2010PropOp39
 70
     1
102
RTVSPost2010Prop40
 90
        0
102
RTVSPost2010PropOp40
 70
     1
102
RTVSPost2010Prop41ColorIndex
 90
       18
102
RTVSPost2010Prop41ColorRGB
 90
        0
102
RTVSPost2010PropOp41
 70
     1
102
RTVSPost2010Prop42
 90
       50
102
RTVSPost2010PropOp42
 70
     1
102
RTVSPost2010Prop43
 90
        3
102
RTVSPost2010PropOp43
 70
     1
102
RTVSPost2010Prop44ColorIndex
 90
        5
102
RTVSPost2010Prop44ColorRGB
 90
      255
102
RTVSPost2010PropOp44
 70
     1
102
RTVSPost2010Prop45
280
     0
102
RTVSPost2010PropOp45
 70
     1
102
RTVSPost2010Prop46
 90
       50
102
RTVSPost2010PropOp46
 70
     1
102
RTVSPost2010Prop47
 90
       50
102
RTVSPost2010PropOp47
 70
     1
102
RTVSPost2010Prop48
 90
       50
102
RTVSPost2010PropOp48
 70
     1
102
RTVSPost2010Prop49
280
     0
102
RTVSPost2010PropOp49
 70
     1
102
RTVSPost2010Prop50
 90
       50
102
RTVSPost2010PropOp50
 70
     1
102
RTVSPost2010Prop51ColorIndex
 90
      256
102
RTVSPost2010Prop51ColorRGB
 90
-16777216
102
RTVSPost2010PropOp51
 70
     0
102
RTVSPost2010Prop52
140
1.0
102
RTVSPost2010PropOp52
 70
     0
102
RTVSPost2010Prop53
 90
        2
102
RTVSPost2010PropOp53
 70
     1
102
RTVSPost2010Prop54
  1
strokes_ogs.tif
102
RTVSPost2010PropOp54
 70
     1
102
RTVSPost2010Prop55
280
     0
102
RTVSPost2010PropOp55
 70
     1
102
RTVSPost2010Prop56
140
1.0
102
RTVSPost2010PropOp56
 70
     1
102
RTVSPost2010Prop57
140
1.0
102
RTVSPost2010PropOp57
 70
     1
102
RTVSPropertyOp0
 70
     1
102
RTVSPropertyOp1
 70
     1
102
RTVSPropertyOp2
 70
     1
102
RTVSPropertyOp3
 70
     1
102
RTVSPropertyOp4
 70
     1
102
RTVSPropertyOp5
 70
     1
102
RTVSPropertyOp6
 70
     1
102
RTVSPropertyOp7
 70
     1
102
RTVSPropertyOp8
 70
     1
102
RTVSPropertyOp9
 70
     1
102
RTVSPropertyOp10
 70
     1
102
RTVSPropertyOp11
 70
     1
102
RTVSPropertyOp12
 70
     1
102
RTVSPropertyOp13
 70
     1
102
RTVSPropertyOp14
 70
     1
102
RTVSPropertyOp15
 70
     1
102
RTVSPropertyOp16
 70
     1
102
RTVSPropertyOp17
 70
     1
102
RTVSPropertyOp18
 70
     1
102
RTVSPropertyOp19
 70
     1
102
RTVSPropertyOp20
 70
     1
102
RTVSPropertyOp21
 70
     1
102
RTVSPropertyOp22
 70
     1
102
RTVSPropertyOp23
 70
     1
102
RTVSPropertyOp24
 70
     1
102
RTVSPropertyOp25
 70
     1
102
RTVSPropertyOp26
 70
     1
102
RTVSPropertyOp27
 70
     1
102
RTVSPropertyOp28
 70
     1
102
RTVSPropertyOp29
 70
     1
102
RTVSPropertyOp30
 70
     1
102
RTVSPropertyOp31
 70
     1
102
RTVSPropertyOp32
 70
     1
102
RTVSPropertyOp33
 70
     1
102
RTVSPropertyOp34
 70
     1
102
RTVSPropertyOp35
 70
     1
102
RTVSPropertyOp36
 70
     1
102
RTVSPropertyOp37
 70
     1
102
RTVSPropertyOp38
 70
     1
102
RTVSPropertyOp39
 70
     1
102
RTVSPropertyOp40
 70
     1
102
RTVSPropertyOp41
 70
     1
102
RTVSPropertyOp42
 70
     1
102
RTVSPropertyOp43
 70
     1
102
RTVSPropertyOp44
 70
     1
102
RTVSPropertyOp45
 70
     1
102
RTVSPropertyOp46
 70
     1
102
RTVSPropertyOp47
 70
     1
102
RTVSPropertyOp48
 70
     1
102
RTVSPropertyOp49
 70
     1
102
RTVSPropertyOp50
 70
     1
102
RTVSPropertyOp51
 70
     0
102
RTVSPropertyOp52
 70
     0
102
RTVSPropertyOp53
 70
     1
102
RTVSPropertyOp54
 70
     1
102
RTVSPropertyOp55
 70
     1
102
RTVSPropertyOp56
 70
     1
102
RTVSPropertyOp57
 70
     1
102
RTVSPropertyOp58
 70
     1
102
RTVSPropertyOp59
 70
     1
102
RTVSPropertyOp60
 70
     1
102
RTVSPropertyOp61
 70
     1
102
RTVSPropertyOp62
 70
     1
  0
XRECORD
  5
CDEE
102
{ACAD_REACTORS
330
CDED
102
}
330
CDED
100
AcDbXrecord
280
     1
102
RTVSPost2010Prop28
280
     0
102
RTVSPost2010PropOp28
 70
     1
102
RTVSPost2010Prop29
280
     1
102
RTVSPost2010PropOp29
 70
     1
102
RTVSPost2010Prop30
280
     1
102
RTVSPost2010PropOp30
 70
     1
102
RTVSPost2010Prop31
280
     0
102
RTVSPost2010PropOp31
 70
     1
102
RTVSPost2010Prop32
280
     0
102
RTVSPost2010PropOp32
 70
     1
102
RTVSPost2010Prop33
280
     0
102
RTVSPost2010PropOp33
 70
     1
102
RTVSPost2010Prop34
280
     0
102
RTVSPost2010PropOp34
 70
     1
102
RTVSPost2010Prop35
280
     0
102
RTVSPost2010PropOp35
 70
     1
102
RTVSPost2010Prop36
280
     0
102
RTVSPost2010PropOp36
 70
     1
102
RTVSPost2010Prop37
 90
       50
102
RTVSPost2010PropOp37
 70
     1
102
RTVSPost2010Prop38
140
0.0
102
RTVSPost2010PropOp38
 70
     1
102
RTVSPost2010Prop39
140
1.0
102
RTVSPost2010PropOp39
 70
     1
102
RTVSPost2010Prop40
 90
        0
102
RTVSPost2010PropOp40
 70
     1
102
RTVSPost2010Prop41ColorIndex
 90
       18
102
RTVSPost2010Prop41ColorRGB
 90
        0
102
RTVSPost2010PropOp41
 70
     1
102
RTVSPost2010Prop42
 90
       50
102
RTVSPost2010PropOp42
 70
     1
102
RTVSPost2010Prop43
 90
        3
102
RTVSPost2010PropOp43
 70
     1
102
RTVSPost2010Prop44ColorIndex
 90
        5
102
RTVSPost2010Prop44ColorRGB
 90
      255
102
RTVSPost2010PropOp44
 70
     1
102
RTVSPost2010Prop45
280
     0
102
RTVSPost2010PropOp45
 70
     1
102
RTVSPost2010Prop46
 90
       50
102
RTVSPost2010PropOp46
 70
     1
102
RTVSPost2010Prop47
 90
       50
102
RTVSPost2010PropOp47
 70
     1
102
RTVSPost2010Prop48
 90
       50
102
RTVSPost2010PropOp48
 70
     1
102
RTVSPost2010Prop49
280
     0
102
RTVSPost2010PropOp49
 70
     1
102
RTVSPost2010Prop50
 90
       50
102
RTVSPost2010PropOp50
 70
     1
102
RTVSPost2010Prop51ColorIndex
 90
      256
102
RTVSPost2010Prop51ColorRGB
 90
-16777216
102
RTVSPost2010PropOp51
 70
     0
102
RTVSPost2010Prop52
140
1.0
102
RTVSPost2010PropOp52
 70
     0
102
RTVSPost2010Prop53
 90
        2
102
RTVSPost2010PropOp53
 70
     1
102
RTVSPost2010Prop54
  1
strokes_ogs.tif
102
RTVSPost2010PropOp54
 70
     1
102
RTVSPost2010Prop55
280
     0
102
RTVSPost2010PropOp55
 70
     1
102
RTVSPost2010Prop56
140
1.0
102
RTVSPost2010PropOp56
 70
     1
102
RTVSPost2010Prop57
140
1.0
102
RTVSPost2010PropOp57
 70
     1
102
RTVSPropertyOp0
 70
     1
102
RTVSPropertyOp1
 70
     1
102
RTVSPropertyOp2
 70
     1
102
RTVSPropertyOp3
 70
     1
102
RTVSPropertyOp4
 70
     1
102
RTVSPropertyOp5
 70
     1
102
RTVSPropertyOp6
 70
     1
102
RTVSPropertyOp7
 70
     1
102
RTVSPropertyOp8
 70
     1
102
RTVSPropertyOp9
 70
     1
102
RTVSPropertyOp10
 70
     1
102
RTVSPropertyOp11
 70
     1
102
RTVSPropertyOp12
 70
     1
102
RTVSPropertyOp13
 70
     1
102
RTVSPropertyOp14
 70
     1
102
RTVSPropertyOp15
 70
     1
102
RTVSPropertyOp16
 70
     1
102
RTVSPropertyOp17
 70
     1
102
RTVSPropertyOp18
 70
     1
102
RTVSPropertyOp19
 70
     1
102
RTVSPropertyOp20
 70
     1
102
RTVSPropertyOp21
 70
     1
102
RTVSPropertyOp22
 70
     1
102
RTVSPropertyOp23
 70
     1
102
RTVSPropertyOp24
 70
     1
102
RTVSPropertyOp25
 70
     1
102
RTVSPropertyOp26
 70
     1
102
RTVSPropertyOp27
 70
     1
102
RTVSPropertyOp28
 70
     1
102
RTVSPropertyOp29
 70
     1
102
RTVSPropertyOp30
 70
     1
102
RTVSPropertyOp31
 70
     1
102
RTVSPropertyOp32
 70
     1
102
RTVSPropertyOp33
 70
     1
102
RTVSPropertyOp34
 70
     1
102
RTVSPropertyOp35
 70
     1
102
RTVSPropertyOp36
 70
     1
102
RTVSPropertyOp37
 70
     1
102
RTVSPropertyOp38
 70
     1
102
RTVSPropertyOp39
 70
     1
102
RTVSPropertyOp40
 70
     1
102
RTVSPropertyOp41
 70
     1
102
RTVSPropertyOp42
 70
     1
102
RTVSPropertyOp43
 70
     1
102
RTVSPropertyOp44
 70
     1
102
RTVSPropertyOp45
 70
     1
102
RTVSPropertyOp46
 70
     1
102
RTVSPropertyOp47
 70
     1
102
RTVSPropertyOp48
 70
     1
102
RTVSPropertyOp49
 70
     1
102
RTVSPropertyOp50
 70
     1
102
RTVSPropertyOp51
 70
     0
102
RTVSPropertyOp52
 70
     0
102
RTVSPropertyOp53
 70
     1
102
RTVSPropertyOp54
 70
     1
102
RTVSPropertyOp55
 70
     1
102
RTVSPropertyOp56
 70
     1
102
RTVSPropertyOp57
 70
     1
102
RTVSPropertyOp58
 70
     1
102
RTVSPropertyOp59
 70
     1
102
RTVSPropertyOp60
 70
     1
102
RTVSPropertyOp61
 70
     1
102
RTVSPropertyOp62
 70
     1
  0
XRECORD
  5
CDF0
102
{ACAD_REACTORS
330
CDEF
102
}
330
CDEF
100
AcDbXrecord
280
     1
102
RTVSPost2010Prop28
280
     0
102
RTVSPost2010PropOp28
 70
     1
102
RTVSPost2010Prop29
280
     1
102
RTVSPost2010PropOp29
 70
     1
102
RTVSPost2010Prop30
280
     1
102
RTVSPost2010PropOp30
 70
     1
102
RTVSPost2010Prop31
280
     0
102
RTVSPost2010PropOp31
 70
     1
102
RTVSPost2010Prop32
280
     0
102
RTVSPost2010PropOp32
 70
     1
102
RTVSPost2010Prop33
280
     0
102
RTVSPost2010PropOp33
 70
     1
102
RTVSPost2010Prop34
280
     0
102
RTVSPost2010PropOp34
 70
     1
102
RTVSPost2010Prop35
280
     0
102
RTVSPost2010PropOp35
 70
     1
102
RTVSPost2010Prop36
280
     0
102
RTVSPost2010PropOp36
 70
     1
102
RTVSPost2010Prop37
 90
       50
102
RTVSPost2010PropOp37
 70
     1
102
RTVSPost2010Prop38
140
0.0
102
RTVSPost2010PropOp38
 70
     1
102
RTVSPost2010Prop39
140
1.0
102
RTVSPost2010PropOp39
 70
     1
102
RTVSPost2010Prop40
 90
        0
102
RTVSPost2010PropOp40
 70
     1
102
RTVSPost2010Prop41ColorIndex
 90
       18
102
RTVSPost2010Prop41ColorRGB
 90
        0
102
RTVSPost2010PropOp41
 70
     1
102
RTVSPost2010Prop42
 90
       50
102
RTVSPost2010PropOp42
 70
     1
102
RTVSPost2010Prop43
 90
        3
102
RTVSPost2010PropOp43
 70
     1
102
RTVSPost2010Prop44ColorIndex
 90
        5
102
RTVSPost2010Prop44ColorRGB
 90
      255
102
RTVSPost2010PropOp44
 70
     1
102
RTVSPost2010Prop45
280
     0
102
RTVSPost2010PropOp45
 70
     1
102
RTVSPost2010Prop46
 90
       50
102
RTVSPost2010PropOp46
 70
     1
102
RTVSPost2010Prop47
 90
       50
102
RTVSPost2010PropOp47
 70
     1
102
RTVSPost2010Prop48
 90
       50
102
RTVSPost2010PropOp48
 70
     1
102
RTVSPost2010Prop49
280
     0
102
RTVSPost2010PropOp49
 70
     1
102
RTVSPost2010Prop50
 90
       50
102
RTVSPost2010PropOp50
 70
     1
102
RTVSPost2010Prop51ColorIndex
 90
      256
102
RTVSPost2010Prop51ColorRGB
 90
-16777216
102
RTVSPost2010PropOp51
 70
     0
102
RTVSPost2010Prop52
140
1.0
102
RTVSPost2010PropOp52
 70
     0
102
RTVSPost2010Prop53
 90
        2
102
RTVSPost2010PropOp53
 70
     1
102
RTVSPost2010Prop54
  1
strokes_ogs.tif
102
RTVSPost2010PropOp54
 70
     1
102
RTVSPost2010Prop55
280
     0
102
RTVSPost2010PropOp55
 70
     1
102
RTVSPost2010Prop56
140
1.0
102
RTVSPost2010PropOp56
 70
     1
102
RTVSPost2010Prop57
140
1.0
102
RTVSPost2010PropOp57
 70
     1
102
RTVSPropertyOp0
 70
     1
102
RTVSPropertyOp1
 70
     1
102
RTVSPropertyOp2
 70
     1
102
RTVSPropertyOp3
 70
     1
102
RTVSPropertyOp4
 70
     1
102
RTVSPropertyOp5
 70
     1
102
RTVSPropertyOp6
 70
     1
102
RTVSPropertyOp7
 70
     1
102
RTVSPropertyOp8
 70
     1
102
RTVSPropertyOp9
 70
     1
102
RTVSPropertyOp10
 70
     1
102
RTVSPropertyOp11
 70
     1
102
RTVSPropertyOp12
 70
     1
102
RTVSPropertyOp13
 70
     1
102
RTVSPropertyOp14
 70
     1
102
RTVSPropertyOp15
 70
     1
102
RTVSPropertyOp16
 70
     1
102
RTVSPropertyOp17
 70
     1
102
RTVSPropertyOp18
 70
     1
102
RTVSPropertyOp19
 70
     1
102
RTVSPropertyOp20
 70
     1
102
RTVSPropertyOp21
 70
     1
102
RTVSPropertyOp22
 70
     1
102
RTVSPropertyOp23
 70
     1
102
RTVSPropertyOp24
 70
     1
102
RTVSPropertyOp25
 70
     1
102
RTVSPropertyOp26
 70
     1
102
RTVSPropertyOp27
 70
     1
102
RTVSPropertyOp28
 70
     1
102
RTVSPropertyOp29
 70
     1
102
RTVSPropertyOp30
 70
     1
102
RTVSPropertyOp31
 70
     1
102
RTVSPropertyOp32
 70
     1
102
RTVSPropertyOp33
 70
     1
102
RTVSPropertyOp34
 70
     1
102
RTVSPropertyOp35
 70
     1
102
RTVSPropertyOp36
 70
     1
102
RTVSPropertyOp37
 70
     1
102
RTVSPropertyOp38
 70
     1
102
RTVSPropertyOp39
 70
     1
102
RTVSPropertyOp40
 70
     1
102
RTVSPropertyOp41
 70
     1
102
RTVSPropertyOp42
 70
     1
102
RTVSPropertyOp43
 70
     1
102
RTVSPropertyOp44
 70
     1
102
RTVSPropertyOp45
 70
     1
102
RTVSPropertyOp46
 70
     1
102
RTVSPropertyOp47
 70
     1
102
RTVSPropertyOp48
 70
     1
102
RTVSPropertyOp49
 70
     1
102
RTVSPropertyOp50
 70
     1
102
RTVSPropertyOp51
 70
     0
102
RTVSPropertyOp52
 70
     0
102
RTVSPropertyOp53
 70
     1
102
RTVSPropertyOp54
 70
     1
102
RTVSPropertyOp55
 70
     1
102
RTVSPropertyOp56
 70
     1
102
RTVSPropertyOp57
 70
     1
102
RTVSPropertyOp58
 70
     1
102
RTVSPropertyOp59
 70
     1
102
RTVSPropertyOp60
 70
     1
102
RTVSPropertyOp61
 70
     1
102
RTVSPropertyOp62
 70
     1
  0
XRECORD
  5
CDF2
102
{ACAD_REACTORS
330
CDF1
102
}
330
CDF1
100
AcDbXrecord
280
     1
102
RTVSPost2010Prop28
280
     0
102
RTVSPost2010PropOp28
 70
     1
102
RTVSPost2010Prop29
280
     1
102
RTVSPost2010PropOp29
 70
     1
102
RTVSPost2010Prop30
280
     1
102
RTVSPost2010PropOp30
 70
     1
102
RTVSPost2010Prop31
280
     0
102
RTVSPost2010PropOp31
 70
     1
102
RTVSPost2010Prop32
280
     0
102
RTVSPost2010PropOp32
 70
     1
102
RTVSPost2010Prop33
280
     0
102
RTVSPost2010PropOp33
 70
     1
102
RTVSPost2010Prop34
280
     0
102
RTVSPost2010PropOp34
 70
     1
102
RTVSPost2010Prop35
280
     0
102
RTVSPost2010PropOp35
 70
     1
102
RTVSPost2010Prop36
280
     0
102
RTVSPost2010PropOp36
 70
     1
102
RTVSPost2010Prop37
 90
       50
102
RTVSPost2010PropOp37
 70
     1
102
RTVSPost2010Prop38
140
0.0
102
RTVSPost2010PropOp38
 70
     1
102
RTVSPost2010Prop39
140
1.0
102
RTVSPost2010PropOp39
 70
     1
102
RTVSPost2010Prop40
 90
        0
102
RTVSPost2010PropOp40
 70
     1
102
RTVSPost2010Prop41ColorIndex
 90
       18
102
RTVSPost2010Prop41ColorRGB
 90
        0
102
RTVSPost2010PropOp41
 70
     1
102
RTVSPost2010Prop42
 90
       50
102
RTVSPost2010PropOp42
 70
     1
102
RTVSPost2010Prop43
 90
        3
102
RTVSPost2010PropOp43
 70
     1
102
RTVSPost2010Prop44ColorIndex
 90
        5
102
RTVSPost2010Prop44ColorRGB
 90
      255
102
RTVSPost2010PropOp44
 70
     1
102
RTVSPost2010Prop45
280
     0
102
RTVSPost2010PropOp45
 70
     1
102
RTVSPost2010Prop46
 90
       50
102
RTVSPost2010PropOp46
 70
     1
102
RTVSPost2010Prop47
 90
       50
102
RTVSPost2010PropOp47
 70
     1
102
RTVSPost2010Prop48
 90
       50
102
RTVSPost2010PropOp48
 70
     1
102
RTVSPost2010Prop49
280
     0
102
RTVSPost2010PropOp49
 70
     1
102
RTVSPost2010Prop50
 90
       50
102
RTVSPost2010PropOp50
 70
     1
102
RTVSPost2010Prop51ColorIndex
 90
      256
102
RTVSPost2010Prop51ColorRGB
 90
-16777216
102
RTVSPost2010PropOp51
 70
     0
102
RTVSPost2010Prop52
140
1.0
102
RTVSPost2010PropOp52
 70
     0
102
RTVSPost2010Prop53
 90
        2
102
RTVSPost2010PropOp53
 70
     1
102
RTVSPost2010Prop54
  1
strokes_ogs.tif
102
RTVSPost2010PropOp54
 70
     1
102
RTVSPost2010Prop55
280
     0
102
RTVSPost2010PropOp55
 70
     1
102
RTVSPost2010Prop56
140
1.0
102
RTVSPost2010PropOp56
 70
     1
102
RTVSPost2010Prop57
140
1.0
102
RTVSPost2010PropOp57
 70
     1
102
RTVSPropertyOp0
 70
     1
102
RTVSPropertyOp1
 70
     1
102
RTVSPropertyOp2
 70
     1
102
RTVSPropertyOp3
 70
     1
102
RTVSPropertyOp4
 70
     1
102
RTVSPropertyOp5
 70
     1
102
RTVSPropertyOp6
 70
     1
102
RTVSPropertyOp7
 70
     1
102
RTVSPropertyOp8
 70
     1
102
RTVSPropertyOp9
 70
     1
102
RTVSPropertyOp10
 70
     1
102
RTVSPropertyOp11
 70
     1
102
RTVSPropertyOp12
 70
     1
102
RTVSPropertyOp13
 70
     1
102
RTVSPropertyOp14
 70
     1
102
RTVSPropertyOp15
 70
     1
102
RTVSPropertyOp16
 70
     1
102
RTVSPropertyOp17
 70
     1
102
RTVSPropertyOp18
 70
     1
102
RTVSPropertyOp19
 70
     1
102
RTVSPropertyOp20
 70
     1
102
RTVSPropertyOp21
 70
     1
102
RTVSPropertyOp22
 70
     1
102
RTVSPropertyOp23
 70
     1
102
RTVSPropertyOp24
 70
     1
102
RTVSPropertyOp25
 70
     1
102
RTVSPropertyOp26
 70
     1
102
RTVSPropertyOp27
 70
     1
102
RTVSPropertyOp28
 70
     1
102
RTVSPropertyOp29
 70
     1
102
RTVSPropertyOp30
 70
     1
102
RTVSPropertyOp31
 70
     1
102
RTVSPropertyOp32
 70
     1
102
RTVSPropertyOp33
 70
     1
102
RTVSPropertyOp34
 70
     1
102
RTVSPropertyOp35
 70
     1
102
RTVSPropertyOp36
 70
     1
102
RTVSPropertyOp37
 70
     1
102
RTVSPropertyOp38
 70
     1
102
RTVSPropertyOp39
 70
     1
102
RTVSPropertyOp40
 70
     1
102
RTVSPropertyOp41
 70
     1
102
RTVSPropertyOp42
 70
     1
102
RTVSPropertyOp43
 70
     1
102
RTVSPropertyOp44
 70
     1
102
RTVSPropertyOp45
 70
     1
102
RTVSPropertyOp46
 70
     1
102
RTVSPropertyOp47
 70
     1
102
RTVSPropertyOp48
 70
     1
102
RTVSPropertyOp49
 70
     1
102
RTVSPropertyOp50
 70
     1
102
RTVSPropertyOp51
 70
     0
102
RTVSPropertyOp52
 70
     0
102
RTVSPropertyOp53
 70
     1
102
RTVSPropertyOp54
 70
     1
102
RTVSPropertyOp55
 70
     1
102
RTVSPropertyOp56
 70
     1
102
RTVSPropertyOp57
 70
     1
102
RTVSPropertyOp58
 70
     1
102
RTVSPropertyOp59
 70
     1
102
RTVSPropertyOp60
 70
     1
102
RTVSPropertyOp61
 70
     1
102
RTVSPropertyOp62
 70
     1
  0
XRECORD
  5
CDFA
102
{ACAD_REACTORS
330
CDF9
102
}
330
CDF9
100
AcDbXrecord
280
     1
102
RTVSPost2010Prop28
280
     0
102
RTVSPost2010PropOp28
 70
     1
102
RTVSPost2010Prop29
280
     1
102
RTVSPost2010PropOp29
 70
     1
102
RTVSPost2010Prop30
280
     1
102
RTVSPost2010PropOp30
 70
     1
102
RTVSPost2010Prop31
280
     0
102
RTVSPost2010PropOp31
 70
     1
102
RTVSPost2010Prop32
280
     0
102
RTVSPost2010PropOp32
 70
     1
102
RTVSPost2010Prop33
280
     0
102
RTVSPost2010PropOp33
 70
     1
102
RTVSPost2010Prop34
280
     0
102
RTVSPost2010PropOp34
 70
     1
102
RTVSPost2010Prop35
280
     0
102
RTVSPost2010PropOp35
 70
     1
102
RTVSPost2010Prop36
280
     0
102
RTVSPost2010PropOp36
 70
     1
102
RTVSPost2010Prop37
 90
       50
102
RTVSPost2010PropOp37
 70
     1
102
RTVSPost2010Prop38
140
0.0
102
RTVSPost2010PropOp38
 70
     1
102
RTVSPost2010Prop39
140
1.0
102
RTVSPost2010PropOp39
 70
     1
102
RTVSPost2010Prop40
 90
        0
102
RTVSPost2010PropOp40
 70
     1
102
RTVSPost2010Prop41ColorIndex
 90
       18
102
RTVSPost2010Prop41ColorRGB
 90
        0
102
RTVSPost2010PropOp41
 70
     1
102
RTVSPost2010Prop42
 90
       50
102
RTVSPost2010PropOp42
 70
     1
102
RTVSPost2010Prop43
 90
        3
102
RTVSPost2010PropOp43
 70
     1
102
RTVSPost2010Prop44ColorIndex
 90
        5
102
RTVSPost2010Prop44ColorRGB
 90
      255
102
RTVSPost2010PropOp44
 70
     1
102
RTVSPost2010Prop45
280
     0
102
RTVSPost2010PropOp45
 70
     1
102
RTVSPost2010Prop46
 90
       50
102
RTVSPost2010PropOp46
 70
     1
102
RTVSPost2010Prop47
 90
       50
102
RTVSPost2010PropOp47
 70
     1
102
RTVSPost2010Prop48
 90
       50
102
RTVSPost2010PropOp48
 70
     1
102
RTVSPost2010Prop49
280
     0
102
RTVSPost2010PropOp49
 70
     1
102
RTVSPost2010Prop50
 90
       50
102
RTVSPost2010PropOp50
 70
     1
102
RTVSPost2010Prop51ColorIndex
 90
      256
102
RTVSPost2010Prop51ColorRGB
 90
-16777216
102
RTVSPost2010PropOp51
 70
     0
102
RTVSPost2010Prop52
140
1.0
102
RTVSPost2010PropOp52
 70
     0
102
RTVSPost2010Prop53
 90
        2
102
RTVSPost2010PropOp53
 70
     1
102
RTVSPost2010Prop54
  1
strokes_ogs.tif
102
RTVSPost2010PropOp54
 70
     1
102
RTVSPost2010Prop55
280
     0
102
RTVSPost2010PropOp55
 70
     1
102
RTVSPost2010Prop56
140
1.0
102
RTVSPost2010PropOp56
 70
     1
102
RTVSPost2010Prop57
140
1.0
102
RTVSPost2010PropOp57
 70
     1
102
RTVSPropertyOp0
 70
     1
102
RTVSPropertyOp1
 70
     1
102
RTVSPropertyOp2
 70
     1
102
RTVSPropertyOp3
 70
     1
102
RTVSPropertyOp4
 70
     1
102
RTVSPropertyOp5
 70
     1
102
RTVSPropertyOp6
 70
     1
102
RTVSPropertyOp7
 70
     1
102
RTVSPropertyOp8
 70
     1
102
RTVSPropertyOp9
 70
     1
102
RTVSPropertyOp10
 70
     1
102
RTVSPropertyOp11
 70
     1
102
RTVSPropertyOp12
 70
     1
102
RTVSPropertyOp13
 70
     1
102
RTVSPropertyOp14
 70
     1
102
RTVSPropertyOp15
 70
     1
102
RTVSPropertyOp16
 70
     1
102
RTVSPropertyOp17
 70
     1
102
RTVSPropertyOp18
 70
     1
102
RTVSPropertyOp19
 70
     1
102
RTVSPropertyOp20
 70
     1
102
RTVSPropertyOp21
 70
     1
102
RTVSPropertyOp22
 70
     1
102
RTVSPropertyOp23
 70
     1
102
RTVSPropertyOp24
 70
     1
102
RTVSPropertyOp25
 70
     1
102
RTVSPropertyOp26
 70
     1
102
RTVSPropertyOp27
 70
     1
102
RTVSPropertyOp28
 70
     1
102
RTVSPropertyOp29
 70
     1
102
RTVSPropertyOp30
 70
     1
102
RTVSPropertyOp31
 70
     1
102
RTVSPropertyOp32
 70
     1
102
RTVSPropertyOp33
 70
     1
102
RTVSPropertyOp34
 70
     1
102
RTVSPropertyOp35
 70
     1
102
RTVSPropertyOp36
 70
     1
102
RTVSPropertyOp37
 70
     1
102
RTVSPropertyOp38
 70
     1
102
RTVSPropertyOp39
 70
     1
102
RTVSPropertyOp40
 70
     1
102
RTVSPropertyOp41
 70
     1
102
RTVSPropertyOp42
 70
     1
102
RTVSPropertyOp43
 70
     1
102
RTVSPropertyOp44
 70
     1
102
RTVSPropertyOp45
 70
     1
102
RTVSPropertyOp46
 70
     1
102
RTVSPropertyOp47
 70
     1
102
RTVSPropertyOp48
 70
     1
102
RTVSPropertyOp49
 70
     1
102
RTVSPropertyOp50
 70
     1
102
RTVSPropertyOp51
 70
     0
102
RTVSPropertyOp52
 70
     0
102
RTVSPropertyOp53
 70
     1
102
RTVSPropertyOp54
 70
     1
102
RTVSPropertyOp55
 70
     1
102
RTVSPropertyOp56
 70
     1
102
RTVSPropertyOp57
 70
     1
102
RTVSPropertyOp58
 70
     1
102
RTVSPropertyOp59
 70
     1
102
RTVSPropertyOp60
 70
     1
102
RTVSPropertyOp61
 70
     1
102
RTVSPropertyOp62
 70
     1
  0
XRECORD
  5
CE16
102
{ACAD_REACTORS
330
CE15
102
}
330
CE15
100
AcDbXrecord
280
     1
102
RTVSPost2010Prop28
280
     0
102
RTVSPost2010PropOp28
 70
     0
102
RTVSPost2010Prop29
280
     1
102
RTVSPost2010PropOp29
 70
     0
102
RTVSPost2010Prop30
280
     1
102
RTVSPost2010PropOp30
 70
     0
102
RTVSPost2010Prop31
280
     0
102
RTVSPost2010PropOp31
 70
     0
102
RTVSPost2010Prop32
280
     0
102
RTVSPost2010PropOp32
 70
     0
102
RTVSPost2010Prop33
280
     0
102
RTVSPost2010PropOp33
 70
     0
102
RTVSPost2010Prop34
280
     0
102
RTVSPost2010PropOp34
 70
     0
102
RTVSPost2010Prop35
280
     0
102
RTVSPost2010PropOp35
 70
     0
102
RTVSPost2010Prop36
280
     0
102
RTVSPost2010PropOp36
 70
     0
102
RTVSPost2010Prop37
 90
       50
102
RTVSPost2010PropOp37
 70
     0
102
RTVSPost2010Prop38
140
0.0
102
RTVSPost2010PropOp38
 70
     0
102
RTVSPost2010Prop39
140
1.0
102
RTVSPost2010PropOp39
 70
     0
102
RTVSPost2010Prop40
 90
        0
102
RTVSPost2010PropOp40
 70
     0
102
RTVSPost2010Prop41ColorIndex
 90
       18
102
RTVSPost2010Prop41ColorRGB
 90
        0
102
RTVSPost2010PropOp41
 70
     0
102
RTVSPost2010Prop42
 90
       50
102
RTVSPost2010PropOp42
 70
     0
102
RTVSPost2010Prop43
 90
        3
102
RTVSPost2010PropOp43
 70
     0
102
RTVSPost2010Prop44ColorIndex
 90
        5
102
RTVSPost2010Prop44ColorRGB
 90
      255
102
RTVSPost2010PropOp44
 70
     0
102
RTVSPost2010Prop45
280
     0
102
RTVSPost2010PropOp45
 70
     0
102
RTVSPost2010Prop46
 90
       50
102
RTVSPost2010PropOp46
 70
     0
102
RTVSPost2010Prop47
 90
       50
102
RTVSPost2010PropOp47
 70
     0
102
RTVSPost2010Prop48
 90
       50
102
RTVSPost2010PropOp48
 70
     0
102
RTVSPost2010Prop49
280
     0
102
RTVSPost2010PropOp49
 70
     0
102
RTVSPost2010Prop50
 90
       50
102
RTVSPost2010PropOp50
 70
     0
102
RTVSPost2010Prop51ColorIndex
 90
      256
102
RTVSPost2010Prop51ColorRGB
 90
-16777216
102
RTVSPost2010PropOp51
 70
     0
102
RTVSPost2010Prop52
140
1.0
102
RTVSPost2010PropOp52
 70
     0
102
RTVSPost2010Prop53
 90
        2
102
RTVSPost2010PropOp53
 70
     0
102
RTVSPost2010Prop54
  1
strokes_ogs.tif
102
RTVSPost2010PropOp54
 70
     0
102
RTVSPost2010Prop55
280
     0
102
RTVSPost2010PropOp55
 70
     0
102
RTVSPost2010Prop56
140
1.0
102
RTVSPost2010PropOp56
 70
     0
102
RTVSPost2010Prop57
140
1.0
102
RTVSPost2010PropOp57
 70
     0
102
RTVSPropertyOp0
 70
     0
102
RTVSPropertyOp1
 70
     0
102
RTVSPropertyOp2
 70
     0
102
RTVSPropertyOp3
 70
     0
102
RTVSPropertyOp4
 70
     0
102
RTVSPropertyOp5
 70
     0
102
RTVSPropertyOp6
 70
     0
102
RTVSPropertyOp7
 70
     0
102
RTVSPropertyOp8
 70
     0
102
RTVSPropertyOp9
 70
     0
102
RTVSPropertyOp10
 70
     0
102
RTVSPropertyOp11
 70
     0
102
RTVSPropertyOp12
 70
     0
102
RTVSPropertyOp13
 70
     0
102
RTVSPropertyOp14
 70
     2
102
RTVSPropertyOp15
 70
     0
102
RTVSPropertyOp16
 70
     0
102
RTVSPropertyOp17
 70
     0
102
RTVSPropertyOp18
 70
     0
102
RTVSPropertyOp19
 70
     0
102
RTVSPropertyOp20
 70
     0
102
RTVSPropertyOp21
 70
     0
102
RTVSPropertyOp22
 70
     0
102
RTVSPropertyOp23
 70
     0
102
RTVSPropertyOp24
 70
     0
102
RTVSPropertyOp25
 70
     0
102
RTVSPropertyOp26
 70
     0
102
RTVSPropertyOp27
 70
     0
102
RTVSPropertyOp28
 70
     0
102
RTVSPropertyOp29
 70
     0
102
RTVSPropertyOp30
 70
     0
102
RTVSPropertyOp31
 70
     0
102
RTVSPropertyOp32
 70
     0
102
RTVSPropertyOp33
 70
     0
102
RTVSPropertyOp34
 70
     0
102
RTVSPropertyOp35
 70
     0
102
RTVSPropertyOp36
 70
     0
102
RTVSPropertyOp37
 70
     0
102
RTVSPropertyOp38
 70
     0
102
RTVSPropertyOp39
 70
     0
102
RTVSPropertyOp40
 70
     0
102
RTVSPropertyOp41
 70
     0
102
RTVSPropertyOp42
 70
     0
102
RTVSPropertyOp43
 70
     0
102
RTVSPropertyOp44
 70
     0
102
RTVSPropertyOp45
 70
     0
102
RTVSPropertyOp46
 70
     0
102
RTVSPropertyOp47
 70
     0
102
RTVSPropertyOp48
 70
     0
102
RTVSPropertyOp49
 70
     0
102
RTVSPropertyOp50
 70
     0
102
RTVSPropertyOp51
 70
     0
102
RTVSPropertyOp52
 70
     0
102
RTVSPropertyOp53
 70
     0
102
RTVSPropertyOp54
 70
     0
102
RTVSPropertyOp55
 70
     0
102
RTVSPropertyOp56
 70
     0
102
RTVSPropertyOp57
 70
     0
102
RTVSPropertyOp58
 70
     0
102
RTVSPropertyOp59
 70
     0
102
RTVSPropertyOp60
 70
     0
102
RTVSPropertyOp61
 70
     0
102
RTVSPropertyOp62
 70
     0
  0
XRECORD
  5
CE06
102
{ACAD_REACTORS
330
CE05
102
}
330
CE05
100
AcDbXrecord
280
     1
102
RTVSPost2010Prop28
280
     0
102
RTVSPost2010PropOp28
 70
     1
102
RTVSPost2010Prop29
280
     1
102
RTVSPost2010PropOp29
 70
     1
102
RTVSPost2010Prop30
280
     1
102
RTVSPost2010PropOp30
 70
     1
102
RTVSPost2010Prop31
280
     0
102
RTVSPost2010PropOp31
 70
     1
102
RTVSPost2010Prop32
280
     0
102
RTVSPost2010PropOp32
 70
     1
102
RTVSPost2010Prop33
280
     0
102
RTVSPost2010PropOp33
 70
     1
102
RTVSPost2010Prop34
280
     0
102
RTVSPost2010PropOp34
 70
     1
102
RTVSPost2010Prop35
280
     0
102
RTVSPost2010PropOp35
 70
     1
102
RTVSPost2010Prop36
280
     0
102
RTVSPost2010PropOp36
 70
     1
102
RTVSPost2010Prop37
 90
       50
102
RTVSPost2010PropOp37
 70
     1
102
RTVSPost2010Prop38
140
0.0
102
RTVSPost2010PropOp38
 70
     1
102
RTVSPost2010Prop39
140
1.0
102
RTVSPost2010PropOp39
 70
     1
102
RTVSPost2010Prop40
 90
        0
102
RTVSPost2010PropOp40
 70
     1
102
RTVSPost2010Prop41ColorIndex
 90
       18
102
RTVSPost2010Prop41ColorRGB
 90
        0
102
RTVSPost2010PropOp41
 70
     1
102
RTVSPost2010Prop42
 90
       50
102
RTVSPost2010PropOp42
 70
     1
102
RTVSPost2010Prop43
 90
        3
102
RTVSPost2010PropOp43
 70
     1
102
RTVSPost2010Prop44ColorIndex
 90
        5
102
RTVSPost2010Prop44ColorRGB
 90
      255
102
RTVSPost2010PropOp44
 70
     1
102
RTVSPost2010Prop45
280
     0
102
RTVSPost2010PropOp45
 70
     1
102
RTVSPost2010Prop46
 90
       50
102
RTVSPost2010PropOp46
 70
     1
102
RTVSPost2010Prop47
 90
       50
102
RTVSPost2010PropOp47
 70
     1
102
RTVSPost2010Prop48
 90
       50
102
RTVSPost2010PropOp48
 70
     1
102
RTVSPost2010Prop49
280
     0
102
RTVSPost2010PropOp49
 70
     1
102
RTVSPost2010Prop50
 90
       50
102
RTVSPost2010PropOp50
 70
     1
102
RTVSPost2010Prop51ColorIndex
 90
      256
102
RTVSPost2010Prop51ColorRGB
 90
-16777216
102
RTVSPost2010PropOp51
 70
     0
102
RTVSPost2010Prop52
140
1.0
102
RTVSPost2010PropOp52
 70
     0
102
RTVSPost2010Prop53
 90
        2
102
RTVSPost2010PropOp53
 70
     1
102
RTVSPost2010Prop54
  1
strokes_ogs.tif
102
RTVSPost2010PropOp54
 70
     1
102
RTVSPost2010Prop55
280
     0
102
RTVSPost2010PropOp55
 70
     1
102
RTVSPost2010Prop56
140
1.0
102
RTVSPost2010PropOp56
 70
     1
102
RTVSPost2010Prop57
140
1.0
102
RTVSPost2010PropOp57
 70
     1
102
RTVSPropertyOp0
 70
     1
102
RTVSPropertyOp1
 70
     1
102
RTVSPropertyOp2
 70
     1
102
RTVSPropertyOp3
 70
     1
102
RTVSPropertyOp4
 70
     1
102
RTVSPropertyOp5
 70
     1
102
RTVSPropertyOp6
 70
     1
102
RTVSPropertyOp7
 70
     1
102
RTVSPropertyOp8
 70
     1
102
RTVSPropertyOp9
 70
     1
102
RTVSPropertyOp10
 70
     1
102
RTVSPropertyOp11
 70
     1
102
RTVSPropertyOp12
 70
     1
102
RTVSPropertyOp13
 70
     1
102
RTVSPropertyOp14
 70
     1
102
RTVSPropertyOp15
 70
     1
102
RTVSPropertyOp16
 70
     1
102
RTVSPropertyOp17
 70
     1
102
RTVSPropertyOp18
 70
     1
102
RTVSPropertyOp19
 70
     1
102
RTVSPropertyOp20
 70
     1
102
RTVSPropertyOp21
 70
     1
102
RTVSPropertyOp22
 70
     1
102
RTVSPropertyOp23
 70
     1
102
RTVSPropertyOp24
 70
     1
102
RTVSPropertyOp25
 70
     1
102
RTVSPropertyOp26
 70
     1
102
RTVSPropertyOp27
 70
     1
102
RTVSPropertyOp28
 70
     1
102
RTVSPropertyOp29
 70
     1
102
RTVSPropertyOp30
 70
     1
102
RTVSPropertyOp31
 70
     1
102
RTVSPropertyOp32
 70
     1
102
RTVSPropertyOp33
 70
     1
102
RTVSPropertyOp34
 70
     1
102
RTVSPropertyOp35
 70
     1
102
RTVSPropertyOp36
 70
     1
102
RTVSPropertyOp37
 70
     1
102
RTVSPropertyOp38
 70
     1
102
RTVSPropertyOp39
 70
     1
102
RTVSPropertyOp40
 70
     1
102
RTVSPropertyOp41
 70
     1
102
RTVSPropertyOp42
 70
     1
102
RTVSPropertyOp43
 70
     1
102
RTVSPropertyOp44
 70
     1
102
RTVSPropertyOp45
 70
     1
102
RTVSPropertyOp46
 70
     1
102
RTVSPropertyOp47
 70
     1
102
RTVSPropertyOp48
 70
     1
102
RTVSPropertyOp49
 70
     1
102
RTVSPropertyOp50
 70
     1
102
RTVSPropertyOp51
 70
     0
102
RTVSPropertyOp52
 70
     0
102
RTVSPropertyOp53
 70
     1
102
RTVSPropertyOp54
 70
     1
102
RTVSPropertyOp55
 70
     1
102
RTVSPropertyOp56
 70
     1
102
RTVSPropertyOp57
 70
     1
102
RTVSPropertyOp58
 70
     1
102
RTVSPropertyOp59
 70
     1
102
RTVSPropertyOp60
 70
     1
102
RTVSPropertyOp61
 70
     1
102
RTVSPropertyOp62
 70
     1
  0
XRECORD
  5
CE18
102
{ACAD_REACTORS
330
CE17
102
}
330
CE17
100
AcDbXrecord
280
     1
102
RTVSPost2010Prop28
280
     0
102
RTVSPost2010PropOp28
 70
     0
102
RTVSPost2010Prop29
280
     1
102
RTVSPost2010PropOp29
 70
     0
102
RTVSPost2010Prop30
280
     1
102
RTVSPost2010PropOp30
 70
     0
102
RTVSPost2010Prop31
280
     0
102
RTVSPost2010PropOp31
 70
     0
102
RTVSPost2010Prop32
280
     0
102
RTVSPost2010PropOp32
 70
     0
102
RTVSPost2010Prop33
280
     0
102
RTVSPost2010PropOp33
 70
     0
102
RTVSPost2010Prop34
280
     0
102
RTVSPost2010PropOp34
 70
     0
102
RTVSPost2010Prop35
280
     0
102
RTVSPost2010PropOp35
 70
     0
102
RTVSPost2010Prop36
280
     0
102
RTVSPost2010PropOp36
 70
     0
102
RTVSPost2010Prop37
 90
       50
102
RTVSPost2010PropOp37
 70
     0
102
RTVSPost2010Prop38
140
0.0
102
RTVSPost2010PropOp38
 70
     0
102
RTVSPost2010Prop39
140
1.0
102
RTVSPost2010PropOp39
 70
     0
102
RTVSPost2010Prop40
 90
        0
102
RTVSPost2010PropOp40
 70
     0
102
RTVSPost2010Prop41ColorIndex
 90
       18
102
RTVSPost2010Prop41ColorRGB
 90
        0
102
RTVSPost2010PropOp41
 70
     0
102
RTVSPost2010Prop42
 90
       50
102
RTVSPost2010PropOp42
 70
     0
102
RTVSPost2010Prop43
 90
        3
102
RTVSPost2010PropOp43
 70
     0
102
RTVSPost2010Prop44ColorIndex
 90
        5
102
RTVSPost2010Prop44ColorRGB
 90
      255
102
RTVSPost2010PropOp44
 70
     0
102
RTVSPost2010Prop45
280
     0
102
RTVSPost2010PropOp45
 70
     0
102
RTVSPost2010Prop46
 90
       50
102
RTVSPost2010PropOp46
 70
     0
102
RTVSPost2010Prop47
 90
       50
102
RTVSPost2010PropOp47
 70
     0
102
RTVSPost2010Prop48
 90
       50
102
RTVSPost2010PropOp48
 70
     0
102
RTVSPost2010Prop49
280
     0
102
RTVSPost2010PropOp49
 70
     0
102
RTVSPost2010Prop50
 90
       50
102
RTVSPost2010PropOp50
 70
     0
102
RTVSPost2010Prop51ColorIndex
 90
      256
102
RTVSPost2010Prop51ColorRGB
 90
-16777216
102
RTVSPost2010PropOp51
 70
     0
102
RTVSPost2010Prop52
140
1.0
102
RTVSPost2010PropOp52
 70
     0
102
RTVSPost2010Prop53
 90
        2
102
RTVSPost2010PropOp53
 70
     0
102
RTVSPost2010Prop54
  1
strokes_ogs.tif
102
RTVSPost2010PropOp54
 70
     0
102
RTVSPost2010Prop55
280
     0
102
RTVSPost2010PropOp55
 70
     0
102
RTVSPost2010Prop56
140
1.0
102
RTVSPost2010PropOp56
 70
     0
102
RTVSPost2010Prop57
140
1.0
102
RTVSPost2010PropOp57
 70
     0
102
RTVSPropertyOp0
 70
     0
102
RTVSPropertyOp1
 70
     0
102
RTVSPropertyOp2
 70
     0
102
RTVSPropertyOp3
 70
     0
102
RTVSPropertyOp4
 70
     0
102
RTVSPropertyOp5
 70
     0
102
RTVSPropertyOp6
 70
     0
102
RTVSPropertyOp7
 70
     0
102
RTVSPropertyOp8
 70
     0
102
RTVSPropertyOp9
 70
     0
102
RTVSPropertyOp10
 70
     0
102
RTVSPropertyOp11
 70
     0
102
RTVSPropertyOp12
 70
     0
102
RTVSPropertyOp13
 70
     0
102
RTVSPropertyOp14
 70
     2
102
RTVSPropertyOp15
 70
     0
102
RTVSPropertyOp16
 70
     0
102
RTVSPropertyOp17
 70
     0
102
RTVSPropertyOp18
 70
     0
102
RTVSPropertyOp19
 70
     0
102
RTVSPropertyOp20
 70
     0
102
RTVSPropertyOp21
 70
     0
102
RTVSPropertyOp22
 70
     0
102
RTVSPropertyOp23
 70
     0
102
RTVSPropertyOp24
 70
     0
102
RTVSPropertyOp25
 70
     0
102
RTVSPropertyOp26
 70
     0
102
RTVSPropertyOp27
 70
     0
102
RTVSPropertyOp28
 70
     0
102
RTVSPropertyOp29
 70
     0
102
RTVSPropertyOp30
 70
     0
102
RTVSPropertyOp31
 70
     0
102
RTVSPropertyOp32
 70
     0
102
RTVSPropertyOp33
 70
     0
102
RTVSPropertyOp34
 70
     0
102
RTVSPropertyOp35
 70
     0
102
RTVSPropertyOp36
 70
     0
102
RTVSPropertyOp37
 70
     0
102
RTVSPropertyOp38
 70
     0
102
RTVSPropertyOp39
 70
     0
102
RTVSPropertyOp40
 70
     0
102
RTVSPropertyOp41
 70
     0
102
RTVSPropertyOp42
 70
     0
102
RTVSPropertyOp43
 70
     0
102
RTVSPropertyOp44
 70
     0
102
RTVSPropertyOp45
 70
     0
102
RTVSPropertyOp46
 70
     0
102
RTVSPropertyOp47
 70
     0
102
RTVSPropertyOp48
 70
     0
102
RTVSPropertyOp49
 70
     0
102
RTVSPropertyOp50
 70
     0
102
RTVSPropertyOp51
 70
     0
102
RTVSPropertyOp52
 70
     0
102
RTVSPropertyOp53
 70
     0
102
RTVSPropertyOp54
 70
     0
102
RTVSPropertyOp55
 70
     0
102
RTVSPropertyOp56
 70
     0
102
RTVSPropertyOp57
 70
     0
102
RTVSPropertyOp58
 70
     0
102
RTVSPropertyOp59
 70
     0
102
RTVSPropertyOp60
 70
     0
102
RTVSPropertyOp61
 70
     0
102
RTVSPropertyOp62
 70
     0
  0
XRECORD
  5
CDFE
102
{ACAD_REACTORS
330
CDFD
102
}
330
CDFD
100
AcDbXrecord
280
     1
102
RTVSPost2010Prop28
280
     0
102
RTVSPost2010PropOp28
 70
     1
102
RTVSPost2010Prop29
280
     1
102
RTVSPost2010PropOp29
 70
     1
102
RTVSPost2010Prop30
280
     1
102
RTVSPost2010PropOp30
 70
     1
102
RTVSPost2010Prop31
280
     0
102
RTVSPost2010PropOp31
 70
     1
102
RTVSPost2010Prop32
280
     0
102
RTVSPost2010PropOp32
 70
     1
102
RTVSPost2010Prop33
280
     0
102
RTVSPost2010PropOp33
 70
     1
102
RTVSPost2010Prop34
280
     0
102
RTVSPost2010PropOp34
 70
     1
102
RTVSPost2010Prop35
280
     0
102
RTVSPost2010PropOp35
 70
     1
102
RTVSPost2010Prop36
280
     0
102
RTVSPost2010PropOp36
 70
     1
102
RTVSPost2010Prop37
 90
       50
102
RTVSPost2010PropOp37
 70
     1
102
RTVSPost2010Prop38
140
0.0
102
RTVSPost2010PropOp38
 70
     1
102
RTVSPost2010Prop39
140
1.0
102
RTVSPost2010PropOp39
 70
     1
102
RTVSPost2010Prop40
 90
        0
102
RTVSPost2010PropOp40
 70
     1
102
RTVSPost2010Prop41ColorIndex
 90
       18
102
RTVSPost2010Prop41ColorRGB
 90
        0
102
RTVSPost2010PropOp41
 70
     1
102
RTVSPost2010Prop42
 90
       50
102
RTVSPost2010PropOp42
 70
     1
102
RTVSPost2010Prop43
 90
        3
102
RTVSPost2010PropOp43
 70
     1
102
RTVSPost2010Prop44ColorIndex
 90
        5
102
RTVSPost2010Prop44ColorRGB
 90
      255
102
RTVSPost2010PropOp44
 70
     1
102
RTVSPost2010Prop45
280
     0
102
RTVSPost2010PropOp45
 70
     1
102
RTVSPost2010Prop46
 90
       50
102
RTVSPost2010PropOp46
 70
     1
102
RTVSPost2010Prop47
 90
       50
102
RTVSPost2010PropOp47
 70
     1
102
RTVSPost2010Prop48
 90
       50
102
RTVSPost2010PropOp48
 70
     1
102
RTVSPost2010Prop49
280
     0
102
RTVSPost2010PropOp49
 70
     1
102
RTVSPost2010Prop50
 90
       50
102
RTVSPost2010PropOp50
 70
     1
102
RTVSPost2010Prop51ColorIndex
 90
      256
102
RTVSPost2010Prop51ColorRGB
 90
-16777216
102
RTVSPost2010PropOp51
 70
     0
102
RTVSPost2010Prop52
140
1.0
102
RTVSPost2010PropOp52
 70
     0
102
RTVSPost2010Prop53
 90
        2
102
RTVSPost2010PropOp53
 70
     1
102
RTVSPost2010Prop54
  1
strokes_ogs.tif
102
RTVSPost2010PropOp54
 70
     1
102
RTVSPost2010Prop55
280
     0
102
RTVSPost2010PropOp55
 70
     1
102
RTVSPost2010Prop56
140
1.0
102
RTVSPost2010PropOp56
 70
     1
102
RTVSPost2010Prop57
140
1.0
102
RTVSPost2010PropOp57
 70
     1
102
RTVSPropertyOp0
 70
     1
102
RTVSPropertyOp1
 70
     1
102
RTVSPropertyOp2
 70
     1
102
RTVSPropertyOp3
 70
     1
102
RTVSPropertyOp4
 70
     1
102
RTVSPropertyOp5
 70
     1
102
RTVSPropertyOp6
 70
     1
102
RTVSPropertyOp7
 70
     1
102
RTVSPropertyOp8
 70
     1
102
RTVSPropertyOp9
 70
     1
102
RTVSPropertyOp10
 70
     1
102
RTVSPropertyOp11
 70
     1
102
RTVSPropertyOp12
 70
     1
102
RTVSPropertyOp13
 70
     1
102
RTVSPropertyOp14
 70
     1
102
RTVSPropertyOp15
 70
     1
102
RTVSPropertyOp16
 70
     1
102
RTVSPropertyOp17
 70
     1
102
RTVSPropertyOp18
 70
     1
102
RTVSPropertyOp19
 70
     1
102
RTVSPropertyOp20
 70
     1
102
RTVSPropertyOp21
 70
     1
102
RTVSPropertyOp22
 70
     1
102
RTVSPropertyOp23
 70
     1
102
RTVSPropertyOp24
 70
     1
102
RTVSPropertyOp25
 70
     1
102
RTVSPropertyOp26
 70
     1
102
RTVSPropertyOp27
 70
     1
102
RTVSPropertyOp28
 70
     1
102
RTVSPropertyOp29
 70
     1
102
RTVSPropertyOp30
 70
     1
102
RTVSPropertyOp31
 70
     1
102
RTVSPropertyOp32
 70
     1
102
RTVSPropertyOp33
 70
     1
102
RTVSPropertyOp34
 70
     1
102
RTVSPropertyOp35
 70
     1
102
RTVSPropertyOp36
 70
     1
102
RTVSPropertyOp37
 70
     1
102
RTVSPropertyOp38
 70
     1
102
RTVSPropertyOp39
 70
     1
102
RTVSPropertyOp40
 70
     1
102
RTVSPropertyOp41
 70
     1
102
RTVSPropertyOp42
 70
     1
102
RTVSPropertyOp43
 70
     1
102
RTVSPropertyOp44
 70
     1
102
RTVSPropertyOp45
 70
     1
102
RTVSPropertyOp46
 70
     1
102
RTVSPropertyOp47
 70
     1
102
RTVSPropertyOp48
 70
     1
102
RTVSPropertyOp49
 70
     1
102
RTVSPropertyOp50
 70
     1
102
RTVSPropertyOp51
 70
     0
102
RTVSPropertyOp52
 70
     0
102
RTVSPropertyOp53
 70
     1
102
RTVSPropertyOp54
 70
     1
102
RTVSPropertyOp55
 70
     1
102
RTVSPropertyOp56
 70
     1
102
RTVSPropertyOp57
 70
     1
102
RTVSPropertyOp58
 70
     1
102
RTVSPropertyOp59
 70
     1
102
RTVSPropertyOp60
 70
     1
102
RTVSPropertyOp61
 70
     1
102
RTVSPropertyOp62
 70
     1
  0
XRECORD
  5
CE14
102
{ACAD_REACTORS
330
CE13
102
}
330
CE13
100
AcDbXrecord
280
     1
102
RTVSPost2010Prop28
280
     0
102
RTVSPost2010PropOp28
 70
     1
102
RTVSPost2010Prop29
280
     1
102
RTVSPost2010PropOp29
 70
     1
102
RTVSPost2010Prop30
280
     1
102
RTVSPost2010PropOp30
 70
     1
102
RTVSPost2010Prop31
280
     0
102
RTVSPost2010PropOp31
 70
     1
102
RTVSPost2010Prop32
280
     0
102
RTVSPost2010PropOp32
 70
     1
102
RTVSPost2010Prop33
280
     0
102
RTVSPost2010PropOp33
 70
     1
102
RTVSPost2010Prop34
280
     0
102
RTVSPost2010PropOp34
 70
     1
102
RTVSPost2010Prop35
280
     0
102
RTVSPost2010PropOp35
 70
     1
102
RTVSPost2010Prop36
280
     0
102
RTVSPost2010PropOp36
 70
     1
102
RTVSPost2010Prop37
 90
       50
102
RTVSPost2010PropOp37
 70
     1
102
RTVSPost2010Prop38
140
0.0
102
RTVSPost2010PropOp38
 70
     1
102
RTVSPost2010Prop39
140
1.0
102
RTVSPost2010PropOp39
 70
     1
102
RTVSPost2010Prop40
 90
        0
102
RTVSPost2010PropOp40
 70
     1
102
RTVSPost2010Prop41ColorIndex
 90
       18
102
RTVSPost2010Prop41ColorRGB
 90
        0
102
RTVSPost2010PropOp41
 70
     1
102
RTVSPost2010Prop42
 90
       50
102
RTVSPost2010PropOp42
 70
     1
102
RTVSPost2010Prop43
 90
        3
102
RTVSPost2010PropOp43
 70
     1
102
RTVSPost2010Prop44ColorIndex
 90
        5
102
RTVSPost2010Prop44ColorRGB
 90
      255
102
RTVSPost2010PropOp44
 70
     1
102
RTVSPost2010Prop45
280
     0
102
RTVSPost2010PropOp45
 70
     1
102
RTVSPost2010Prop46
 90
       50
102
RTVSPost2010PropOp46
 70
     1
102
RTVSPost2010Prop47
 90
       50
102
RTVSPost2010PropOp47
 70
     1
102
RTVSPost2010Prop48
 90
       50
102
RTVSPost2010PropOp48
 70
     1
102
RTVSPost2010Prop49
280
     0
102
RTVSPost2010PropOp49
 70
     1
102
RTVSPost2010Prop50
 90
       50
102
RTVSPost2010PropOp50
 70
     1
102
RTVSPost2010Prop51ColorIndex
 90
      256
102
RTVSPost2010Prop51ColorRGB
 90
-16777216
102
RTVSPost2010PropOp51
 70
     0
102
RTVSPost2010Prop52
140
1.0
102
RTVSPost2010PropOp52
 70
     0
102
RTVSPost2010Prop53
 90
        2
102
RTVSPost2010PropOp53
 70
     1
102
RTVSPost2010Prop54
  1
strokes_ogs.tif
102
RTVSPost2010PropOp54
 70
     1
102
RTVSPost2010Prop55
280
     0
102
RTVSPost2010PropOp55
 70
     1
102
RTVSPost2010Prop56
140
1.0
102
RTVSPost2010PropOp56
 70
     1
102
RTVSPost2010Prop57
140
1.0
102
RTVSPost2010PropOp57
 70
     1
102
RTVSPropertyOp0
 70
     1
102
RTVSPropertyOp1
 70
     1
102
RTVSPropertyOp2
 70
     1
102
RTVSPropertyOp3
 70
     1
102
RTVSPropertyOp4
 70
     1
102
RTVSPropertyOp5
 70
     1
102
RTVSPropertyOp6
 70
     1
102
RTVSPropertyOp7
 70
     1
102
RTVSPropertyOp8
 70
     1
102
RTVSPropertyOp9
 70
     1
102
RTVSPropertyOp10
 70
     1
102
RTVSPropertyOp11
 70
     1
102
RTVSPropertyOp12
 70
     1
102
RTVSPropertyOp13
 70
     1
102
RTVSPropertyOp14
 70
     1
102
RTVSPropertyOp15
 70
     1
102
RTVSPropertyOp16
 70
     1
102
RTVSPropertyOp17
 70
     1
102
RTVSPropertyOp18
 70
     1
102
RTVSPropertyOp19
 70
     1
102
RTVSPropertyOp20
 70
     1
102
RTVSPropertyOp21
 70
     1
102
RTVSPropertyOp22
 70
     1
102
RTVSPropertyOp23
 70
     1
102
RTVSPropertyOp24
 70
     1
102
RTVSPropertyOp25
 70
     1
102
RTVSPropertyOp26
 70
     1
102
RTVSPropertyOp27
 70
     1
102
RTVSPropertyOp28
 70
     1
102
RTVSPropertyOp29
 70
     1
102
RTVSPropertyOp30
 70
     1
102
RTVSPropertyOp31
 70
     1
102
RTVSPropertyOp32
 70
     1
102
RTVSPropertyOp33
 70
     1
102
RTVSPropertyOp34
 70
     1
102
RTVSPropertyOp35
 70
     1
102
RTVSPropertyOp36
 70
     1
102
RTVSPropertyOp37
 70
     1
102
RTVSPropertyOp38
 70
     1
102
RTVSPropertyOp39
 70
     1
102
RTVSPropertyOp40
 70
     1
102
RTVSPropertyOp41
 70
     1
102
RTVSPropertyOp42
 70
     1
102
RTVSPropertyOp43
 70
     1
102
RTVSPropertyOp44
 70
     1
102
RTVSPropertyOp45
 70
     1
102
RTVSPropertyOp46
 70
     1
102
RTVSPropertyOp47
 70
     1
102
RTVSPropertyOp48
 70
     1
102
RTVSPropertyOp49
 70
     1
102
RTVSPropertyOp50
 70
     1
102
RTVSPropertyOp51
 70
     0
102
RTVSPropertyOp52
 70
     0
102
RTVSPropertyOp53
 70
     1
102
RTVSPropertyOp54
 70
     1
102
RTVSPropertyOp55
 70
     1
102
RTVSPropertyOp56
 70
     1
102
RTVSPropertyOp57
 70
     1
102
RTVSPropertyOp58
 70
     1
102
RTVSPropertyOp59
 70
     1
102
RTVSPropertyOp60
 70
     1
102
RTVSPropertyOp61
 70
     1
102
RTVSPropertyOp62
 70
     1
  0
XRECORD
  5
CE12
102
{ACAD_REACTORS
330
CE11
102
}
330
CE11
100
AcDbXrecord
280
     1
102
RTVSPost2010Prop28
280
     0
102
RTVSPost2010PropOp28
 70
     1
102
RTVSPost2010Prop29
280
     1
102
RTVSPost2010PropOp29
 70
     1
102
RTVSPost2010Prop30
280
     1
102
RTVSPost2010PropOp30
 70
     1
102
RTVSPost2010Prop31
280
     0
102
RTVSPost2010PropOp31
 70
     1
102
RTVSPost2010Prop32
280
     0
102
RTVSPost2010PropOp32
 70
     1
102
RTVSPost2010Prop33
280
     0
102
RTVSPost2010PropOp33
 70
     1
102
RTVSPost2010Prop34
280
     0
102
RTVSPost2010PropOp34
 70
     1
102
RTVSPost2010Prop35
280
     0
102
RTVSPost2010PropOp35
 70
     1
102
RTVSPost2010Prop36
280
     0
102
RTVSPost2010PropOp36
 70
     1
102
RTVSPost2010Prop37
 90
       50
102
RTVSPost2010PropOp37
 70
     1
102
RTVSPost2010Prop38
140
0.0
102
RTVSPost2010PropOp38
 70
     1
102
RTVSPost2010Prop39
140
1.0
102
RTVSPost2010PropOp39
 70
     1
102
RTVSPost2010Prop40
 90
        0
102
RTVSPost2010PropOp40
 70
     1
102
RTVSPost2010Prop41ColorIndex
 90
       18
102
RTVSPost2010Prop41ColorRGB
 90
        0
102
RTVSPost2010PropOp41
 70
     1
102
RTVSPost2010Prop42
 90
       50
102
RTVSPost2010PropOp42
 70
     1
102
RTVSPost2010Prop43
 90
        3
102
RTVSPost2010PropOp43
 70
     1
102
RTVSPost2010Prop44ColorIndex
 90
        5
102
RTVSPost2010Prop44ColorRGB
 90
      255
102
RTVSPost2010PropOp44
 70
     1
102
RTVSPost2010Prop45
280
     0
102
RTVSPost2010PropOp45
 70
     1
102
RTVSPost2010Prop46
 90
       50
102
RTVSPost2010PropOp46
 70
     1
102
RTVSPost2010Prop47
 90
       50
102
RTVSPost2010PropOp47
 70
     1
102
RTVSPost2010Prop48
 90
       50
102
RTVSPost2010PropOp48
 70
     1
102
RTVSPost2010Prop49
280
     0
102
RTVSPost2010PropOp49
 70
     1
102
RTVSPost2010Prop50
 90
       50
102
RTVSPost2010PropOp50
 70
     1
102
RTVSPost2010Prop51ColorIndex
 90
      256
102
RTVSPost2010Prop51ColorRGB
 90
-16777216
102
RTVSPost2010PropOp51
 70
     0
102
RTVSPost2010Prop52
140
1.0
102
RTVSPost2010PropOp52
 70
     0
102
RTVSPost2010Prop53
 90
        2
102
RTVSPost2010PropOp53
 70
     1
102
RTVSPost2010Prop54
  1
strokes_ogs.tif
102
RTVSPost2010PropOp54
 70
     1
102
RTVSPost2010Prop55
280
     0
102
RTVSPost2010PropOp55
 70
     1
102
RTVSPost2010Prop56
140
1.0
102
RTVSPost2010PropOp56
 70
     1
102
RTVSPost2010Prop57
140
1.0
102
RTVSPost2010PropOp57
 70
     1
102
RTVSPropertyOp0
 70
     1
102
RTVSPropertyOp1
 70
     1
102
RTVSPropertyOp2
 70
     1
102
RTVSPropertyOp3
 70
     1
102
RTVSPropertyOp4
 70
     1
102
RTVSPropertyOp5
 70
     1
102
RTVSPropertyOp6
 70
     1
102
RTVSPropertyOp7
 70
     1
102
RTVSPropertyOp8
 70
     1
102
RTVSPropertyOp9
 70
     1
102
RTVSPropertyOp10
 70
     1
102
RTVSPropertyOp11
 70
     1
102
RTVSPropertyOp12
 70
     1
102
RTVSPropertyOp13
 70
     1
102
RTVSPropertyOp14
 70
     1
102
RTVSPropertyOp15
 70
     1
102
RTVSPropertyOp16
 70
     1
102
RTVSPropertyOp17
 70
     1
102
RTVSPropertyOp18
 70
     1
102
RTVSPropertyOp19
 70
     1
102
RTVSPropertyOp20
 70
     1
102
RTVSPropertyOp21
 70
     1
102
RTVSPropertyOp22
 70
     1
102
RTVSPropertyOp23
 70
     1
102
RTVSPropertyOp24
 70
     1
102
RTVSPropertyOp25
 70
     1
102
RTVSPropertyOp26
 70
     1
102
RTVSPropertyOp27
 70
     1
102
RTVSPropertyOp28
 70
     1
102
RTVSPropertyOp29
 70
     1
102
RTVSPropertyOp30
 70
     1
102
RTVSPropertyOp31
 70
     1
102
RTVSPropertyOp32
 70
     1
102
RTVSPropertyOp33
 70
     1
102
RTVSPropertyOp34
 70
     1
102
RTVSPropertyOp35
 70
     1
102
RTVSPropertyOp36
 70
     1
102
RTVSPropertyOp37
 70
     1
102
RTVSPropertyOp38
 70
     1
102
RTVSPropertyOp39
 70
     1
102
RTVSPropertyOp40
 70
     1
102
RTVSPropertyOp41
 70
     1
102
RTVSPropertyOp42
 70
     1
102
RTVSPropertyOp43
 70
     1
102
RTVSPropertyOp44
 70
     1
102
RTVSPropertyOp45
 70
     1
102
RTVSPropertyOp46
 70
     1
102
RTVSPropertyOp47
 70
     1
102
RTVSPropertyOp48
 70
     1
102
RTVSPropertyOp49
 70
     1
102
RTVSPropertyOp50
 70
     1
102
RTVSPropertyOp51
 70
     0
102
RTVSPropertyOp52
 70
     0
102
RTVSPropertyOp53
 70
     1
102
RTVSPropertyOp54
 70
     1
102
RTVSPropertyOp55
 70
     1
102
RTVSPropertyOp56
 70
     1
102
RTVSPropertyOp57
 70
     1
102
RTVSPropertyOp58
 70
     1
102
RTVSPropertyOp59
 70
     1
102
RTVSPropertyOp60
 70
     1
102
RTVSPropertyOp61
 70
     1
102
RTVSPropertyOp62
 70
     1
  0
XRECORD
  5
CE0C
102
{ACAD_REACTORS
330
CE0B
102
}
330
CE0B
100
AcDbXrecord
280
     1
102
RTVSPost2010Prop28
280
     0
102
RTVSPost2010PropOp28
 70
     1
102
RTVSPost2010Prop29
280
     1
102
RTVSPost2010PropOp29
 70
     1
102
RTVSPost2010Prop30
280
     1
102
RTVSPost2010PropOp30
 70
     1
102
RTVSPost2010Prop31
280
     0
102
RTVSPost2010PropOp31
 70
     1
102
RTVSPost2010Prop32
280
     0
102
RTVSPost2010PropOp32
 70
     1
102
RTVSPost2010Prop33
280
     0
102
RTVSPost2010PropOp33
 70
     1
102
RTVSPost2010Prop34
280
     0
102
RTVSPost2010PropOp34
 70
     1
102
RTVSPost2010Prop35
280
     0
102
RTVSPost2010PropOp35
 70
     1
102
RTVSPost2010Prop36
280
     0
102
RTVSPost2010PropOp36
 70
     1
102
RTVSPost2010Prop37
 90
       50
102
RTVSPost2010PropOp37
 70
     1
102
RTVSPost2010Prop38
140
0.0
102
RTVSPost2010PropOp38
 70
     1
102
RTVSPost2010Prop39
140
1.0
102
RTVSPost2010PropOp39
 70
     1
102
RTVSPost2010Prop40
 90
        0
102
RTVSPost2010PropOp40
 70
     1
102
RTVSPost2010Prop41ColorIndex
 90
       18
102
RTVSPost2010Prop41ColorRGB
 90
        0
102
RTVSPost2010PropOp41
 70
     1
102
RTVSPost2010Prop42
 90
       50
102
RTVSPost2010PropOp42
 70
     1
102
RTVSPost2010Prop43
 90
        3
102
RTVSPost2010PropOp43
 70
     1
102
RTVSPost2010Prop44ColorIndex
 90
        5
102
RTVSPost2010Prop44ColorRGB
 90
      255
102
RTVSPost2010PropOp44
 70
     1
102
RTVSPost2010Prop45
280
     0
102
RTVSPost2010PropOp45
 70
     1
102
RTVSPost2010Prop46
 90
       50
102
RTVSPost2010PropOp46
 70
     1
102
RTVSPost2010Prop47
 90
       50
102
RTVSPost2010PropOp47
 70
     1
102
RTVSPost2010Prop48
 90
       50
102
RTVSPost2010PropOp48
 70
     1
102
RTVSPost2010Prop49
280
     0
102
RTVSPost2010PropOp49
 70
     1
102
RTVSPost2010Prop50
 90
       50
102
RTVSPost2010PropOp50
 70
     1
102
RTVSPost2010Prop51ColorIndex
 90
      256
102
RTVSPost2010Prop51ColorRGB
 90
-16777216
102
RTVSPost2010PropOp51
 70
     0
102
RTVSPost2010Prop52
140
1.0
102
RTVSPost2010PropOp52
 70
     0
102
RTVSPost2010Prop53
 90
        2
102
RTVSPost2010PropOp53
 70
     1
102
RTVSPost2010Prop54
  1
strokes_ogs.tif
102
RTVSPost2010PropOp54
 70
     1
102
RTVSPost2010Prop55
280
     0
102
RTVSPost2010PropOp55
 70
     1
102
RTVSPost2010Prop56
140
1.0
102
RTVSPost2010PropOp56
 70
     1
102
RTVSPost2010Prop57
140
1.0
102
RTVSPost2010PropOp57
 70
     1
102
RTVSPropertyOp0
 70
     1
102
RTVSPropertyOp1
 70
     1
102
RTVSPropertyOp2
 70
     1
102
RTVSPropertyOp3
 70
     1
102
RTVSPropertyOp4
 70
     1
102
RTVSPropertyOp5
 70
     1
102
RTVSPropertyOp6
 70
     1
102
RTVSPropertyOp7
 70
     1
102
RTVSPropertyOp8
 70
     1
102
RTVSPropertyOp9
 70
     1
102
RTVSPropertyOp10
 70
     1
102
RTVSPropertyOp11
 70
     1
102
RTVSPropertyOp12
 70
     1
102
RTVSPropertyOp13
 70
     1
102
RTVSPropertyOp14
 70
     1
102
RTVSPropertyOp15
 70
     1
102
RTVSPropertyOp16
 70
     1
102
RTVSPropertyOp17
 70
     1
102
RTVSPropertyOp18
 70
     1
102
RTVSPropertyOp19
 70
     1
102
RTVSPropertyOp20
 70
     1
102
RTVSPropertyOp21
 70
     1
102
RTVSPropertyOp22
 70
     1
102
RTVSPropertyOp23
 70
     1
102
RTVSPropertyOp24
 70
     1
102
RTVSPropertyOp25
 70
     1
102
RTVSPropertyOp26
 70
     1
102
RTVSPropertyOp27
 70
     1
102
RTVSPropertyOp28
 70
     1
102
RTVSPropertyOp29
 70
     1
102
RTVSPropertyOp30
 70
     1
102
RTVSPropertyOp31
 70
     1
102
RTVSPropertyOp32
 70
     1
102
RTVSPropertyOp33
 70
     1
102
RTVSPropertyOp34
 70
     1
102
RTVSPropertyOp35
 70
     1
102
RTVSPropertyOp36
 70
     1
102
RTVSPropertyOp37
 70
     1
102
RTVSPropertyOp38
 70
     1
102
RTVSPropertyOp39
 70
     1
102
RTVSPropertyOp40
 70
     1
102
RTVSPropertyOp41
 70
     1
102
RTVSPropertyOp42
 70
     1
102
RTVSPropertyOp43
 70
     1
102
RTVSPropertyOp44
 70
     1
102
RTVSPropertyOp45
 70
     1
102
RTVSPropertyOp46
 70
     1
102
RTVSPropertyOp47
 70
     1
102
RTVSPropertyOp48
 70
     1
102
RTVSPropertyOp49
 70
     1
102
RTVSPropertyOp50
 70
     1
102
RTVSPropertyOp51
 70
     0
102
RTVSPropertyOp52
 70
     0
102
RTVSPropertyOp53
 70
     1
102
RTVSPropertyOp54
 70
     1
102
RTVSPropertyOp55
 70
     1
102
RTVSPropertyOp56
 70
     1
102
RTVSPropertyOp57
 70
     1
102
RTVSPropertyOp58
 70
     1
102
RTVSPropertyOp59
 70
     1
102
RTVSPropertyOp60
 70
     1
102
RTVSPropertyOp61
 70
     1
102
RTVSPropertyOp62
 70
     1
  0
XRECORD
  5
CE0E
102
{ACAD_REACTORS
330
CE0D
102
}
330
CE0D
100
AcDbXrecord
280
     1
102
RTVSPost2010Prop28
280
     0
102
RTVSPost2010PropOp28
 70
     1
102
RTVSPost2010Prop29
280
     1
102
RTVSPost2010PropOp29
 70
     1
102
RTVSPost2010Prop30
280
     1
102
RTVSPost2010PropOp30
 70
     1
102
RTVSPost2010Prop31
280
     0
102
RTVSPost2010PropOp31
 70
     1
102
RTVSPost2010Prop32
280
     0
102
RTVSPost2010PropOp32
 70
     1
102
RTVSPost2010Prop33
280
     0
102
RTVSPost2010PropOp33
 70
     1
102
RTVSPost2010Prop34
280
     0
102
RTVSPost2010PropOp34
 70
     1
102
RTVSPost2010Prop35
280
     0
102
RTVSPost2010PropOp35
 70
     1
102
RTVSPost2010Prop36
280
     0
102
RTVSPost2010PropOp36
 70
     1
102
RTVSPost2010Prop37
 90
       50
102
RTVSPost2010PropOp37
 70
     1
102
RTVSPost2010Prop38
140
0.0
102
RTVSPost2010PropOp38
 70
     1
102
RTVSPost2010Prop39
140
1.0
102
RTVSPost2010PropOp39
 70
     1
102
RTVSPost2010Prop40
 90
        0
102
RTVSPost2010PropOp40
 70
     1
102
RTVSPost2010Prop41ColorIndex
 90
       18
102
RTVSPost2010Prop41ColorRGB
 90
        0
102
RTVSPost2010PropOp41
 70
     1
102
RTVSPost2010Prop42
 90
       50
102
RTVSPost2010PropOp42
 70
     1
102
RTVSPost2010Prop43
 90
        3
102
RTVSPost2010PropOp43
 70
     1
102
RTVSPost2010Prop44ColorIndex
 90
        5
102
RTVSPost2010Prop44ColorRGB
 90
      255
102
RTVSPost2010PropOp44
 70
     1
102
RTVSPost2010Prop45
280
     0
102
RTVSPost2010PropOp45
 70
     1
102
RTVSPost2010Prop46
 90
       50
102
RTVSPost2010PropOp46
 70
     1
102
RTVSPost2010Prop47
 90
       50
102
RTVSPost2010PropOp47
 70
     1
102
RTVSPost2010Prop48
 90
       50
102
RTVSPost2010PropOp48
 70
     1
102
RTVSPost2010Prop49
280
     0
102
RTVSPost2010PropOp49
 70
     1
102
RTVSPost2010Prop50
 90
       50
102
RTVSPost2010PropOp50
 70
     1
102
RTVSPost2010Prop51ColorIndex
 90
      256
102
RTVSPost2010Prop51ColorRGB
 90
-16777216
102
RTVSPost2010PropOp51
 70
     0
102
RTVSPost2010Prop52
140
1.0
102
RTVSPost2010PropOp52
 70
     0
102
RTVSPost2010Prop53
 90
        2
102
RTVSPost2010PropOp53
 70
     1
102
RTVSPost2010Prop54
  1
strokes_ogs.tif
102
RTVSPost2010PropOp54
 70
     1
102
RTVSPost2010Prop55
280
     0
102
RTVSPost2010PropOp55
 70
     1
102
RTVSPost2010Prop56
140
1.0
102
RTVSPost2010PropOp56
 70
     1
102
RTVSPost2010Prop57
140
1.0
102
RTVSPost2010PropOp57
 70
     1
102
RTVSPropertyOp0
 70
     1
102
RTVSPropertyOp1
 70
     1
102
RTVSPropertyOp2
 70
     1
102
RTVSPropertyOp3
 70
     1
102
RTVSPropertyOp4
 70
     1
102
RTVSPropertyOp5
 70
     1
102
RTVSPropertyOp6
 70
     1
102
RTVSPropertyOp7
 70
     1
102
RTVSPropertyOp8
 70
     1
102
RTVSPropertyOp9
 70
     1
102
RTVSPropertyOp10
 70
     1
102
RTVSPropertyOp11
 70
     1
102
RTVSPropertyOp12
 70
     1
102
RTVSPropertyOp13
 70
     1
102
RTVSPropertyOp14
 70
     1
102
RTVSPropertyOp15
 70
     1
102
RTVSPropertyOp16
 70
     1
102
RTVSPropertyOp17
 70
     1
102
RTVSPropertyOp18
 70
     1
102
RTVSPropertyOp19
 70
     1
102
RTVSPropertyOp20
 70
     1
102
RTVSPropertyOp21
 70
     1
102
RTVSPropertyOp22
 70
     1
102
RTVSPropertyOp23
 70
     1
102
RTVSPropertyOp24
 70
     1
102
RTVSPropertyOp25
 70
     1
102
RTVSPropertyOp26
 70
     1
102
RTVSPropertyOp27
 70
     1
102
RTVSPropertyOp28
 70
     1
102
RTVSPropertyOp29
 70
     1
102
RTVSPropertyOp30
 70
     1
102
RTVSPropertyOp31
 70
     1
102
RTVSPropertyOp32
 70
     1
102
RTVSPropertyOp33
 70
     1
102
RTVSPropertyOp34
 70
     1
102
RTVSPropertyOp35
 70
     1
102
RTVSPropertyOp36
 70
     1
102
RTVSPropertyOp37
 70
     1
102
RTVSPropertyOp38
 70
     1
102
RTVSPropertyOp39
 70
     1
102
RTVSPropertyOp40
 70
     1
102
RTVSPropertyOp41
 70
     1
102
RTVSPropertyOp42
 70
     1
102
RTVSPropertyOp43
 70
     1
102
RTVSPropertyOp44
 70
     1
102
RTVSPropertyOp45
 70
     1
102
RTVSPropertyOp46
 70
     1
102
RTVSPropertyOp47
 70
     1
102
RTVSPropertyOp48
 70
     1
102
RTVSPropertyOp49
 70
     1
102
RTVSPropertyOp50
 70
     1
102
RTVSPropertyOp51
 70
     0
102
RTVSPropertyOp52
 70
     0
102
RTVSPropertyOp53
 70
     1
102
RTVSPropertyOp54
 70
     1
102
RTVSPropertyOp55
 70
     1
102
RTVSPropertyOp56
 70
     1
102
RTVSPropertyOp57
 70
     1
102
RTVSPropertyOp58
 70
     1
102
RTVSPropertyOp59
 70
     1
102
RTVSPropertyOp60
 70
     1
102
RTVSPropertyOp61
 70
     1
102
RTVSPropertyOp62
 70
     1
  0
XRECORD
  5
CE04
102
{ACAD_REACTORS
330
CE03
102
}
330
CE03
100
AcDbXrecord
280
     1
102
RTVSPost2010Prop28
280
     0
102
RTVSPost2010PropOp28
 70
     1
102
RTVSPost2010Prop29
280
     1
102
RTVSPost2010PropOp29
 70
     1
102
RTVSPost2010Prop30
280
     1
102
RTVSPost2010PropOp30
 70
     1
102
RTVSPost2010Prop31
280
     0
102
RTVSPost2010PropOp31
 70
     1
102
RTVSPost2010Prop32
280
     0
102
RTVSPost2010PropOp32
 70
     1
102
RTVSPost2010Prop33
280
     0
102
RTVSPost2010PropOp33
 70
     1
102
RTVSPost2010Prop34
280
     0
102
RTVSPost2010PropOp34
 70
     1
102
RTVSPost2010Prop35
280
     0
102
RTVSPost2010PropOp35
 70
     1
102
RTVSPost2010Prop36
280
     0
102
RTVSPost2010PropOp36
 70
     1
102
RTVSPost2010Prop37
 90
       50
102
RTVSPost2010PropOp37
 70
     1
102
RTVSPost2010Prop38
140
0.0
102
RTVSPost2010PropOp38
 70
     1
102
RTVSPost2010Prop39
140
1.0
102
RTVSPost2010PropOp39
 70
     1
102
RTVSPost2010Prop40
 90
        0
102
RTVSPost2010PropOp40
 70
     1
102
RTVSPost2010Prop41ColorIndex
 90
       18
102
RTVSPost2010Prop41ColorRGB
 90
        0
102
RTVSPost2010PropOp41
 70
     1
102
RTVSPost2010Prop42
 90
       50
102
RTVSPost2010PropOp42
 70
     1
102
RTVSPost2010Prop43
 90
        3
102
RTVSPost2010PropOp43
 70
     1
102
RTVSPost2010Prop44ColorIndex
 90
        5
102
RTVSPost2010Prop44ColorRGB
 90
      255
102
RTVSPost2010PropOp44
 70
     1
102
RTVSPost2010Prop45
280
     0
102
RTVSPost2010PropOp45
 70
     1
102
RTVSPost2010Prop46
 90
       50
102
RTVSPost2010PropOp46
 70
     1
102
RTVSPost2010Prop47
 90
       50
102
RTVSPost2010PropOp47
 70
     1
102
RTVSPost2010Prop48
 90
       50
102
RTVSPost2010PropOp48
 70
     1
102
RTVSPost2010Prop49
280
     0
102
RTVSPost2010PropOp49
 70
     1
102
RTVSPost2010Prop50
 90
       50
102
RTVSPost2010PropOp50
 70
     1
102
RTVSPost2010Prop51ColorIndex
 90
      256
102
RTVSPost2010Prop51ColorRGB
 90
-16777216
102
RTVSPost2010PropOp51
 70
     0
102
RTVSPost2010Prop52
140
1.0
102
RTVSPost2010PropOp52
 70
     0
102
RTVSPost2010Prop53
 90
        2
102
RTVSPost2010PropOp53
 70
     1
102
RTVSPost2010Prop54
  1
strokes_ogs.tif
102
RTVSPost2010PropOp54
 70
     1
102
RTVSPost2010Prop55
280
     0
102
RTVSPost2010PropOp55
 70
     1
102
RTVSPost2010Prop56
140
1.0
102
RTVSPost2010PropOp56
 70
     1
102
RTVSPost2010Prop57
140
1.0
102
RTVSPost2010PropOp57
 70
     1
102
RTVSPropertyOp0
 70
     1
102
RTVSPropertyOp1
 70
     1
102
RTVSPropertyOp2
 70
     1
102
RTVSPropertyOp3
 70
     1
102
RTVSPropertyOp4
 70
     1
102
RTVSPropertyOp5
 70
     1
102
RTVSPropertyOp6
 70
     1
102
RTVSPropertyOp7
 70
     1
102
RTVSPropertyOp8
 70
     1
102
RTVSPropertyOp9
 70
     1
102
RTVSPropertyOp10
 70
     1
102
RTVSPropertyOp11
 70
     1
102
RTVSPropertyOp12
 70
     1
102
RTVSPropertyOp13
 70
     1
102
RTVSPropertyOp14
 70
     1
102
RTVSPropertyOp15
 70
     1
102
RTVSPropertyOp16
 70
     1
102
RTVSPropertyOp17
 70
     1
102
RTVSPropertyOp18
 70
     1
102
RTVSPropertyOp19
 70
     1
102
RTVSPropertyOp20
 70
     1
102
RTVSPropertyOp21
 70
     1
102
RTVSPropertyOp22
 70
     1
102
RTVSPropertyOp23
 70
     1
102
RTVSPropertyOp24
 70
     1
102
RTVSPropertyOp25
 70
     1
102
RTVSPropertyOp26
 70
     1
102
RTVSPropertyOp27
 70
     1
102
RTVSPropertyOp28
 70
     1
102
RTVSPropertyOp29
 70
     1
102
RTVSPropertyOp30
 70
     1
102
RTVSPropertyOp31
 70
     1
102
RTVSPropertyOp32
 70
     1
102
RTVSPropertyOp33
 70
     1
102
RTVSPropertyOp34
 70
     1
102
RTVSPropertyOp35
 70
     1
102
RTVSPropertyOp36
 70
     1
102
RTVSPropertyOp37
 70
     1
102
RTVSPropertyOp38
 70
     1
102
RTVSPropertyOp39
 70
     1
102
RTVSPropertyOp40
 70
     1
102
RTVSPropertyOp41
 70
     1
102
RTVSPropertyOp42
 70
     1
102
RTVSPropertyOp43
 70
     1
102
RTVSPropertyOp44
 70
     1
102
RTVSPropertyOp45
 70
     1
102
RTVSPropertyOp46
 70
     1
102
RTVSPropertyOp47
 70
     1
102
RTVSPropertyOp48
 70
     1
102
RTVSPropertyOp49
 70
     1
102
RTVSPropertyOp50
 70
     1
102
RTVSPropertyOp51
 70
     0
102
RTVSPropertyOp52
 70
     0
102
RTVSPropertyOp53
 70
     1
102
RTVSPropertyOp54
 70
     1
102
RTVSPropertyOp55
 70
     1
102
RTVSPropertyOp56
 70
     1
102
RTVSPropertyOp57
 70
     1
102
RTVSPropertyOp58
 70
     1
102
RTVSPropertyOp59
 70
     1
102
RTVSPropertyOp60
 70
     1
102
RTVSPropertyOp61
 70
     1
102
RTVSPropertyOp62
 70
     1
  0
XRECORD
  5
CDF8
102
{ACAD_REACTORS
330
CDF7
102
}
330
CDF7
100
AcDbXrecord
280
     1
102
RTVSPost2010Prop28
280
     0
102
RTVSPost2010PropOp28
 70
     1
102
RTVSPost2010Prop29
280
     1
102
RTVSPost2010PropOp29
 70
     1
102
RTVSPost2010Prop30
280
     1
102
RTVSPost2010PropOp30
 70
     1
102
RTVSPost2010Prop31
280
     0
102
RTVSPost2010PropOp31
 70
     1
102
RTVSPost2010Prop32
280
     0
102
RTVSPost2010PropOp32
 70
     1
102
RTVSPost2010Prop33
280
     0
102
RTVSPost2010PropOp33
 70
     1
102
RTVSPost2010Prop34
280
     0
102
RTVSPost2010PropOp34
 70
     1
102
RTVSPost2010Prop35
280
     0
102
RTVSPost2010PropOp35
 70
     1
102
RTVSPost2010Prop36
280
     0
102
RTVSPost2010PropOp36
 70
     1
102
RTVSPost2010Prop37
 90
       50
102
RTVSPost2010PropOp37
 70
     1
102
RTVSPost2010Prop38
140
0.0
102
RTVSPost2010PropOp38
 70
     1
102
RTVSPost2010Prop39
140
1.0
102
RTVSPost2010PropOp39
 70
     1
102
RTVSPost2010Prop40
 90
        0
102
RTVSPost2010PropOp40
 70
     1
102
RTVSPost2010Prop41ColorIndex
 90
       18
102
RTVSPost2010Prop41ColorRGB
 90
        0
102
RTVSPost2010PropOp41
 70
     1
102
RTVSPost2010Prop42
 90
       50
102
RTVSPost2010PropOp42
 70
     1
102
RTVSPost2010Prop43
 90
        3
102
RTVSPost2010PropOp43
 70
     1
102
RTVSPost2010Prop44ColorIndex
 90
        5
102
RTVSPost2010Prop44ColorRGB
 90
      255
102
RTVSPost2010PropOp44
 70
     1
102
RTVSPost2010Prop45
280
     0
102
RTVSPost2010PropOp45
 70
     1
102
RTVSPost2010Prop46
 90
       50
102
RTVSPost2010PropOp46
 70
     1
102
RTVSPost2010Prop47
 90
       50
102
RTVSPost2010PropOp47
 70
     1
102
RTVSPost2010Prop48
 90
       50
102
RTVSPost2010PropOp48
 70
     1
102
RTVSPost2010Prop49
280
     0
102
RTVSPost2010PropOp49
 70
     1
102
RTVSPost2010Prop50
 90
       50
102
RTVSPost2010PropOp50
 70
     1
102
RTVSPost2010Prop51ColorIndex
 90
      256
102
RTVSPost2010Prop51ColorRGB
 90
-16777216
102
RTVSPost2010PropOp51
 70
     0
102
RTVSPost2010Prop52
140
1.0
102
RTVSPost2010PropOp52
 70
     0
102
RTVSPost2010Prop53
 90
        2
102
RTVSPost2010PropOp53
 70
     1
102
RTVSPost2010Prop54
  1
strokes_ogs.tif
102
RTVSPost2010PropOp54
 70
     1
102
RTVSPost2010Prop55
280
     0
102
RTVSPost2010PropOp55
 70
     1
102
RTVSPost2010Prop56
140
1.0
102
RTVSPost2010PropOp56
 70
     1
102
RTVSPost2010Prop57
140
1.0
102
RTVSPost2010PropOp57
 70
     1
102
RTVSPropertyOp0
 70
     1
102
RTVSPropertyOp1
 70
     1
102
RTVSPropertyOp2
 70
     1
102
RTVSPropertyOp3
 70
     1
102
RTVSPropertyOp4
 70
     1
102
RTVSPropertyOp5
 70
     1
102
RTVSPropertyOp6
 70
     1
102
RTVSPropertyOp7
 70
     1
102
RTVSPropertyOp8
 70
     1
102
RTVSPropertyOp9
 70
     1
102
RTVSPropertyOp10
 70
     1
102
RTVSPropertyOp11
 70
     1
102
RTVSPropertyOp12
 70
     1
102
RTVSPropertyOp13
 70
     1
102
RTVSPropertyOp14
 70
     1
102
RTVSPropertyOp15
 70
     1
102
RTVSPropertyOp16
 70
     1
102
RTVSPropertyOp17
 70
     1
102
RTVSPropertyOp18
 70
     1
102
RTVSPropertyOp19
 70
     1
102
RTVSPropertyOp20
 70
     1
102
RTVSPropertyOp21
 70
     1
102
RTVSPropertyOp22
 70
     1
102
RTVSPropertyOp23
 70
     1
102
RTVSPropertyOp24
 70
     1
102
RTVSPropertyOp25
 70
     1
102
RTVSPropertyOp26
 70
     1
102
RTVSPropertyOp27
 70
     1
102
RTVSPropertyOp28
 70
     1
102
RTVSPropertyOp29
 70
     1
102
RTVSPropertyOp30
 70
     1
102
RTVSPropertyOp31
 70
     1
102
RTVSPropertyOp32
 70
     1
102
RTVSPropertyOp33
 70
     1
102
RTVSPropertyOp34
 70
     1
102
RTVSPropertyOp35
 70
     1
102
RTVSPropertyOp36
 70
     1
102
RTVSPropertyOp37
 70
     1
102
RTVSPropertyOp38
 70
     1
102
RTVSPropertyOp39
 70
     1
102
RTVSPropertyOp40
 70
     1
102
RTVSPropertyOp41
 70
     1
102
RTVSPropertyOp42
 70
     1
102
RTVSPropertyOp43
 70
     1
102
RTVSPropertyOp44
 70
     1
102
RTVSPropertyOp45
 70
     1
102
RTVSPropertyOp46
 70
     1
102
RTVSPropertyOp47
 70
     1
102
RTVSPropertyOp48
 70
     1
102
RTVSPropertyOp49
 70
     1
102
RTVSPropertyOp50
 70
     1
102
RTVSPropertyOp51
 70
     0
102
RTVSPropertyOp52
 70
     0
102
RTVSPropertyOp53
 70
     1
102
RTVSPropertyOp54
 70
     1
102
RTVSPropertyOp55
 70
     1
102
RTVSPropertyOp56
 70
     1
102
RTVSPropertyOp57
 70
     1
102
RTVSPropertyOp58
 70
     1
102
RTVSPropertyOp59
 70
     1
102
RTVSPropertyOp60
 70
     1
102
RTVSPropertyOp61
 70
     1
102
RTVSPropertyOp62
 70
     1
  0
XRECORD
  5
CE10
102
{ACAD_REACTORS
330
CE0F
102
}
330
CE0F
100
AcDbXrecord
280
     1
102
RTVSPost2010Prop28
280
     0
102
RTVSPost2010PropOp28
 70
     1
102
RTVSPost2010Prop29
280
     1
102
RTVSPost2010PropOp29
 70
     1
102
RTVSPost2010Prop30
280
     1
102
RTVSPost2010PropOp30
 70
     1
102
RTVSPost2010Prop31
280
     0
102
RTVSPost2010PropOp31
 70
     1
102
RTVSPost2010Prop32
280
     0
102
RTVSPost2010PropOp32
 70
     1
102
RTVSPost2010Prop33
280
     0
102
RTVSPost2010PropOp33
 70
     1
102
RTVSPost2010Prop34
280
     0
102
RTVSPost2010PropOp34
 70
     1
102
RTVSPost2010Prop35
280
     0
102
RTVSPost2010PropOp35
 70
     1
102
RTVSPost2010Prop36
280
     0
102
RTVSPost2010PropOp36
 70
     1
102
RTVSPost2010Prop37
 90
       50
102
RTVSPost2010PropOp37
 70
     1
102
RTVSPost2010Prop38
140
0.0
102
RTVSPost2010PropOp38
 70
     1
102
RTVSPost2010Prop39
140
1.0
102
RTVSPost2010PropOp39
 70
     1
102
RTVSPost2010Prop40
 90
        0
102
RTVSPost2010PropOp40
 70
     1
102
RTVSPost2010Prop41ColorIndex
 90
       18
102
RTVSPost2010Prop41ColorRGB
 90
        0
102
RTVSPost2010PropOp41
 70
     1
102
RTVSPost2010Prop42
 90
       50
102
RTVSPost2010PropOp42
 70
     1
102
RTVSPost2010Prop43
 90
        3
102
RTVSPost2010PropOp43
 70
     1
102
RTVSPost2010Prop44ColorIndex
 90
        5
102
RTVSPost2010Prop44ColorRGB
 90
      255
102
RTVSPost2010PropOp44
 70
     1
102
RTVSPost2010Prop45
280
     0
102
RTVSPost2010PropOp45
 70
     1
102
RTVSPost2010Prop46
 90
       50
102
RTVSPost2010PropOp46
 70
     1
102
RTVSPost2010Prop47
 90
       50
102
RTVSPost2010PropOp47
 70
     1
102
RTVSPost2010Prop48
 90
       50
102
RTVSPost2010PropOp48
 70
     1
102
RTVSPost2010Prop49
280
     0
102
RTVSPost2010PropOp49
 70
     1
102
RTVSPost2010Prop50
 90
       50
102
RTVSPost2010PropOp50
 70
     1
102
RTVSPost2010Prop51ColorIndex
 90
      256
102
RTVSPost2010Prop51ColorRGB
 90
-16777216
102
RTVSPost2010PropOp51
 70
     0
102
RTVSPost2010Prop52
140
1.0
102
RTVSPost2010PropOp52
 70
     0
102
RTVSPost2010Prop53
 90
        2
102
RTVSPost2010PropOp53
 70
     1
102
RTVSPost2010Prop54
  1
strokes_ogs.tif
102
RTVSPost2010PropOp54
 70
     1
102
RTVSPost2010Prop55
280
     0
102
RTVSPost2010PropOp55
 70
     1
102
RTVSPost2010Prop56
140
1.0
102
RTVSPost2010PropOp56
 70
     1
102
RTVSPost2010Prop57
140
1.0
102
RTVSPost2010PropOp57
 70
     1
102
RTVSPropertyOp0
 70
     1
102
RTVSPropertyOp1
 70
     1
102
RTVSPropertyOp2
 70
     1
102
RTVSPropertyOp3
 70
     1
102
RTVSPropertyOp4
 70
     1
102
RTVSPropertyOp5
 70
     1
102
RTVSPropertyOp6
 70
     1
102
RTVSPropertyOp7
 70
     1
102
RTVSPropertyOp8
 70
     1
102
RTVSPropertyOp9
 70
     1
102
RTVSPropertyOp10
 70
     1
102
RTVSPropertyOp11
 70
     1
102
RTVSPropertyOp12
 70
     1
102
RTVSPropertyOp13
 70
     1
102
RTVSPropertyOp14
 70
     1
102
RTVSPropertyOp15
 70
     1
102
RTVSPropertyOp16
 70
     1
102
RTVSPropertyOp17
 70
     1
102
RTVSPropertyOp18
 70
     1
102
RTVSPropertyOp19
 70
     1
102
RTVSPropertyOp20
 70
     1
102
RTVSPropertyOp21
 70
     1
102
RTVSPropertyOp22
 70
     1
102
RTVSPropertyOp23
 70
     1
102
RTVSPropertyOp24
 70
     1
102
RTVSPropertyOp25
 70
     1
102
RTVSPropertyOp26
 70
     1
102
RTVSPropertyOp27
 70
     1
102
RTVSPropertyOp28
 70
     1
102
RTVSPropertyOp29
 70
     1
102
RTVSPropertyOp30
 70
     1
102
RTVSPropertyOp31
 70
     1
102
RTVSPropertyOp32
 70
     1
102
RTVSPropertyOp33
 70
     1
102
RTVSPropertyOp34
 70
     1
102
RTVSPropertyOp35
 70
     1
102
RTVSPropertyOp36
 70
     1
102
RTVSPropertyOp37
 70
     1
102
RTVSPropertyOp38
 70
     1
102
RTVSPropertyOp39
 70
     1
102
RTVSPropertyOp40
 70
     1
102
RTVSPropertyOp41
 70
     1
102
RTVSPropertyOp42
 70
     1
102
RTVSPropertyOp43
 70
     1
102
RTVSPropertyOp44
 70
     1
102
RTVSPropertyOp45
 70
     1
102
RTVSPropertyOp46
 70
     1
102
RTVSPropertyOp47
 70
     1
102
RTVSPropertyOp48
 70
     1
102
RTVSPropertyOp49
 70
     1
102
RTVSPropertyOp50
 70
     1
102
RTVSPropertyOp51
 70
     0
102
RTVSPropertyOp52
 70
     0
102
RTVSPropertyOp53
 70
     1
102
RTVSPropertyOp54
 70
     1
102
RTVSPropertyOp55
 70
     1
102
RTVSPropertyOp56
 70
     1
102
RTVSPropertyOp57
 70
     1
102
RTVSPropertyOp58
 70
     1
102
RTVSPropertyOp59
 70
     1
102
RTVSPropertyOp60
 70
     1
102
RTVSPropertyOp61
 70
     1
102
RTVSPropertyOp62
 70
     1
  0
ACDBASSOCARRAYACTIONBODY
  5
CD3E
330
CD3D
100
AcDbAssocActionBody
 90
        1
100
AcDbAssocParamBasedActionBody
 90
        0
 90
        0
 90
        3
360
CD3F
360
CD40
360
CD44
 90
        0
 90
        9
 90
        0
  1
AlignItems
 90
        0
 90
        1
 90
        0
330
0
330
0
 90
        0
  1
AxesAngle
 90
        2
 90
        1
 40
1.570796326794896
330
0
330
0
 90
        0
  1
ItemSpacing
 90
        1
 90
        1
 40
60.0
330
0
330
0
 90
        0
  1
Items
 90
        0
 90
        1
 90
       16
330
0
330
0
 90
        0
  1
LevelSpacing
 90
        1
 90
        1
 40
1.0
330
0
330
0
 90
        0
  1
Levels
 90
        0
 90
        1
 90
        1
330
0
330
0
 90
        0
  1
RowElevation
 90
        1
 90
        1
 40
0.0
330
0
330
0
 90
        0
  1
RowSpacing
 90
        1
 90
        1
 40
48.0
330
0
330
0
 90
        0
  1
Rows
 90
        0
 90
        1
 90
        1
330
0
330
0
100
AcDbAssocArrayActionBody
 90
        1
  1
AcDbAssocArrayRectangularParameters
 90
        0
 90
       16
  1
AcDbAssocArrayItem
100
AcDbAssocArrayItem
 90
        0
 90
        0
 90
        0
 90
        0
 90
        8
 11
0.0
 21
0.0
 31
0.0
330
CD46
100
AcDbAssocArrayItem
 90
        0
 90
        1
 90
        0
 90
        0
 90
        8
 11
60.0
 21
0.0
 31
0.0
330
CD47
100
AcDbAssocArrayItem
 90
        0
 90
        2
 90
        0
 90
        0
 90
        8
 11
120.0
 21
0.0
 31
0.0
330
CD48
100
AcDbAssocArrayItem
 90
        0
 90
        3
 90
        0
 90
        0
 90
        8
 11
180.0
 21
0.0
 31
0.0
330
CD49
100
AcDbAssocArrayItem
 90
        0
 90
        4
 90
        0
 90
        0
 90
        8
 11
240.0
 21
0.0
 31
0.0
330
CD4A
100
AcDbAssocArrayItem
 90
        0
 90
        5
 90
        0
 90
        0
 90
        8
 11
300.0
 21
0.0
 31
0.0
330
CD4B
100
AcDbAssocArrayItem
 90
        0
 90
        6
 90
        0
 90
        0
 90
        8
 11
360.0
 21
0.0
 31
0.0
330
CD4C
100
AcDbAssocArrayItem
 90
        0
 90
        7
 90
        0
 90
        0
 90
        8
 11
420.0
 21
0.0
 31
0.0
330
CD4D
100
AcDbAssocArrayItem
 90
        0
 90
        8
 90
        0
 90
        0
 90
        8
 11
480.0
 21
0.0
 31
0.0
330
CD4E
100
AcDbAssocArrayItem
 90
        0
 90
        9
 90
        0
 90
        0
 90
        8
 11
540.0
 21
0.0
 31
0.0
330
CD4F
100
AcDbAssocArrayItem
 90
        0
 90
       10
 90
        0
 90
        0
 90
        8
 11
600.0
 21
0.0
 31
0.0
330
CD50
100
AcDbAssocArrayItem
 90
        0
 90
       11
 90
        0
 90
        0
 90
        8
 11
660.0
 21
0.0
 31
0.0
330
CD51
100
AcDbAssocArrayItem
 90
        0
 90
       12
 90
        0
 90
        0
 90
        8
 11
720.0
 21
0.0
 31
0.0
330
CD52
100
AcDbAssocArrayItem
 90
        0
 90
       13
 90
        0
 90
        0
 90
        8
 11
780.0
 21
0.0
 31
0.0
330
CD53
100
AcDbAssocArrayItem
 90
        0
 90
       14
 90
        0
 90
        0
 90
        8
 11
840.0
 21
0.0
 31
0.0
330
CD54
100
AcDbAssocArrayItem
 90
        0
 90
       15
 90
        0
 90
        0
 90
        8
 11
900.0
 21
0.0
 31
0.0
330
CD55
 40
1.0
 40
0.0
 40
0.0
 40
429.999999999999
 40
0.0
 40
1.0
 40
0.0
 40
1396.165796905608
 40
0.0
 40
0.0
 40
1.0
 40
0.0
 40
0.0
 40
0.0
 40
0.0
 40
1.0
  0
ACDBASSOCDEPENDENCY
  5
CD41
330
CD3D
100
AcDbAssocDependency
 90
        2
 90
        1
290
     0
290
     1
290
     1
290
     1
 90
        0
330
CCE5
290
     0
330
0
330
0
360
0
 90
        1
  0
ACDBASSOCDEPENDENCY
  5
CD42
330
CD3D
100
AcDbAssocDependency
 90
        2
 90
        1
290
     1
290
     0
290
     1
290
     1
 90
        0
330
CCE2
290
     0
330
0
330
0
360
0
 90
        2
  0
ACDBASSOCDEPENDENCY
  5
CD43
330
CD3D
100
AcDbAssocDependency
 90
        2
 90
        0
290
     1
290
     1
290
     1
290
     1
 90
-2147483648
330
CCE8
290
     0
330
0
330
0
360
0
 90
        3
  0
ACDBASSOCARRAYACTIONBODY
  5
CD95
330
CD94
100
AcDbAssocActionBody
 90
        1
100
AcDbAssocParamBasedActionBody
 90
        0
 90
        0
 90
        3
360
CD96
360
CD97
360
CD9B
 90
        0
 90
        9
 90
        0
  1
AlignItems
 90
        0
 90
        1
 90
        0
330
0
330
0
 90
        0
  1
AxesAngle
 90
        2
 90
        1
 40
1.570796326794896
330
0
330
0
 90
        0
  1
ItemSpacing
 90
        1
 90
        1
 40
30.0
330
0
330
0
 90
        0
  1
Items
 90
        0
 90
        1
 90
       32
330
0
330
0
 90
        0
  1
LevelSpacing
 90
        1
 90
        1
 40
1.0
330
0
330
0
 90
        0
  1
Levels
 90
        0
 90
        1
 90
        1
330
0
330
0
 90
        0
  1
RowElevation
 90
        1
 90
        1
 40
0.0
330
0
330
0
 90
        0
  1
RowSpacing
 90
        1
 90
        1
 40
426.0000000000013
330
0
330
0
 90
        0
  1
Rows
 90
        0
 90
        1
 90
        1
330
0
330
0
100
AcDbAssocArrayActionBody
 90
        1
  1
AcDbAssocArrayRectangularParameters
 90
        0
 90
       32
  1
AcDbAssocArrayItem
100
AcDbAssocArrayItem
 90
        0
 90
        0
 90
        0
 90
        0
 90
        8
 11
0.0
 21
0.0
 31
0.0
330
CD9D
100
AcDbAssocArrayItem
 90
        0
 90
        1
 90
        0
 90
        0
 90
        8
 11
30.0
 21
0.0
 31
0.0
330
CD9E
100
AcDbAssocArrayItem
 90
        0
 90
        2
 90
        0
 90
        0
 90
        8
 11
60.0
 21
0.0
 31
0.0
330
CD9F
100
AcDbAssocArrayItem
 90
        0
 90
        3
 90
        0
 90
        0
 90
        8
 11
90.0
 21
0.0
 31
0.0
330
CDA0
100
AcDbAssocArrayItem
 90
        0
 90
        4
 90
        0
 90
        0
 90
        8
 11
120.0
 21
0.0
 31
0.0
330
CDA1
100
AcDbAssocArrayItem
 90
        0
 90
        5
 90
        0
 90
        0
 90
        8
 11
150.0
 21
0.0
 31
0.0
330
CDA2
100
AcDbAssocArrayItem
 90
        0
 90
        6
 90
        0
 90
        0
 90
        8
 11
180.0
 21
0.0
 31
0.0
330
CDA3
100
AcDbAssocArrayItem
 90
        0
 90
        7
 90
        0
 90
        0
 90
        8
 11
210.0
 21
0.0
 31
0.0
330
CDA4
100
AcDbAssocArrayItem
 90
        0
 90
        8
 90
        0
 90
        0
 90
        8
 11
240.0
 21
0.0
 31
0.0
330
CDA5
100
AcDbAssocArrayItem
 90
        0
 90
        9
 90
        0
 90
        0
 90
        8
 11
270.0
 21
0.0
 31
0.0
330
CDA6
100
AcDbAssocArrayItem
 90
        0
 90
       10
 90
        0
 90
        0
 90
        8
 11
300.0
 21
0.0
 31
0.0
330
CDA7
100
AcDbAssocArrayItem
 90
        0
 90
       11
 90
        0
 90
        0
 90
        8
 11
330.0
 21
0.0
 31
0.0
330
CDA8
100
AcDbAssocArrayItem
 90
        0
 90
       12
 90
        0
 90
        0
 90
        8
 11
360.0
 21
0.0
 31
0.0
330
CDA9
100
AcDbAssocArrayItem
 90
        0
 90
       13
 90
        0
 90
        0
 90
        8
 11
390.0
 21
0.0
 31
0.0
330
CDAA
100
AcDbAssocArrayItem
 90
        0
 90
       14
 90
        0
 90
        0
 90
        8
 11
420.0
 21
0.0
 31
0.0
330
CDAB
100
AcDbAssocArrayItem
 90
        0
 90
       15
 90
        0
 90
        0
 90
        8
 11
450.0
 21
0.0
 31
0.0
330
CDAC
100
AcDbAssocArrayItem
 90
        0
 90
       16
 90
        0
 90
        0
 90
        8
 11
480.0
 21
0.0
 31
0.0
330
CDAD
100
AcDbAssocArrayItem
 90
        0
 90
       17
 90
        0
 90
        0
 90
        8
 11
510.0
 21
0.0
 31
0.0
330
CDAE
100
AcDbAssocArrayItem
 90
        0
 90
       18
 90
        0
 90
        0
 90
        8
 11
540.0
 21
0.0
 31
0.0
330
CDAF
100
AcDbAssocArrayItem
 90
        0
 90
       19
 90
        0
 90
        0
 90
        8
 11
570.0
 21
0.0
 31
0.0
330
CDB0
100
AcDbAssocArrayItem
 90
        0
 90
       20
 90
        0
 90
        0
 90
        8
 11
600.0
 21
0.0
 31
0.0
330
CDB1
100
AcDbAssocArrayItem
 90
        0
 90
       21
 90
        0
 90
        0
 90
        8
 11
630.0
 21
0.0
 31
0.0
330
CDB2
100
AcDbAssocArrayItem
 90
        0
 90
       22
 90
        0
 90
        0
 90
        8
 11
660.0
 21
0.0
 31
0.0
330
CDB3
100
AcDbAssocArrayItem
 90
        0
 90
       23
 90
        0
 90
        0
 90
        8
 11
690.0
 21
0.0
 31
0.0
330
CDB4
100
AcDbAssocArrayItem
 90
        0
 90
       24
 90
        0
 90
        0
 90
        8
 11
720.0
 21
0.0
 31
0.0
330
CDB5
100
AcDbAssocArrayItem
 90
        0
 90
       25
 90
        0
 90
        0
 90
        8
 11
750.0
 21
0.0
 31
0.0
330
CDB6
100
AcDbAssocArrayItem
 90
        0
 90
       26
 90
        0
 90
        0
 90
        8
 11
780.0
 21
0.0
 31
0.0
330
CDB7
100
AcDbAssocArrayItem
 90
        0
 90
       27
 90
        0
 90
        0
 90
        8
 11
810.0
 21
0.0
 31
0.0
330
CDB8
100
AcDbAssocArrayItem
 90
        0
 90
       28
 90
        0
 90
        0
 90
        8
 11
840.0
 21
0.0
 31
0.0
330
CDB9
100
AcDbAssocArrayItem
 90
        0
 90
       29
 90
        0
 90
        0
 90
        8
 11
870.0
 21
0.0
 31
0.0
330
CDBA
100
AcDbAssocArrayItem
 90
        0
 90
       30
 90
        0
 90
        0
 90
        8
 11
900.0
 21
0.0
 31
0.0
330
CDBB
100
AcDbAssocArrayItem
 90
        0
 90
       31
 90
        0
 90
        0
 90
        8
 11
930.0
 21
0.0
 31
0.0
330
CDBC
 40
1.0
 40
0.0
 40
0.0
 40
444.999999999999
 40
0.0
 40
1.0
 40
0.0
 40
666.2573057865825
 40
0.0
 40
0.0
 40
1.0
 40
0.0
 40
0.0
 40
0.0
 40
0.0
 40
1.0
  0
ACDBASSOCDEPENDENCY
  5
CD98
330
CD94
100
AcDbAssocDependency
 90
        2
 90
        1
290
     0
290
     1
290
     1
290
     1
 90
        0
330
CD5A
290
     0
330
0
330
0
360
0
 90
        1
  0
ACDBASSOCDEPENDENCY
  5
CD99
330
CD94
100
AcDbAssocDependency
 90
        2
 90
        1
290
     1
290
     0
290
     1
290
     1
 90
        0
330
CD57
290
     0
330
0
330
0
360
0
 90
        2
  0
ACDBASSOCDEPENDENCY
  5
CD9A
330
CD94
100
AcDbAssocDependency
 90
        2
 90
        0
290
     1
290
     1
290
     1
290
     1
 90
-2147483648
330
CD5D
290
     0
330
0
330
0
360
0
 90
        3
  0
ACDBASSOCARRAYACTIONBODY
  5
CDC8
330
CDC7
100
AcDbAssocActionBody
 90
        1
100
AcDbAssocParamBasedActionBody
 90
        0
 90
        0
 90
        3
360
CDC9
360
CDCA
360
CDCE
 90
        0
 90
        9
 90
        0
  1
AlignItems
 90
        0
 90
        1
 90
        0
330
0
330
0
 90
        0
  1
AxesAngle
 90
        2
 90
        1
 40
1.570796326794896
330
0
330
0
 90
        0
  1
ItemSpacing
 90
        1
 90
        1
 40
60.0
330
0
330
0
 90
        0
  1
Items
 90
        0
 90
        1
 90
       17
330
0
330
0
 90
        0
  1
LevelSpacing
 90
        1
 90
        1
 40
1.0
330
0
330
0
 90
        0
  1
Levels
 90
        0
 90
        1
 90
        1
330
0
330
0
 90
        0
  1
RowElevation
 90
        1
 90
        1
 40
0.0
330
0
330
0
 90
        0
  1
RowSpacing
 90
        1
 90
        1
 40
425.9999999999988
330
0
330
0
 90
        0
  1
Rows
 90
        0
 90
        1
 90
        1
330
0
330
0
100
AcDbAssocArrayActionBody
 90
        1
  1
AcDbAssocArrayRectangularParameters
 90
        0
 90
       17
  1
AcDbAssocArrayItem
100
AcDbAssocArrayItem
 90
        0
 90
        0
 90
        0
 90
        0
 90
        8
 11
0.0
 21
0.0
 31
0.0
330
CDD0
100
AcDbAssocArrayItem
 90
        0
 90
        1
 90
        0
 90
        0
 90
        8
 11
60.0
 21
0.0
 31
0.0
330
CDD1
100
AcDbAssocArrayItem
 90
        0
 90
        2
 90
        0
 90
        0
 90
        8
 11
120.0
 21
0.0
 31
0.0
330
CDD2
100
AcDbAssocArrayItem
 90
        0
 90
        3
 90
        0
 90
        0
 90
        8
 11
180.0
 21
0.0
 31
0.0
330
CDD3
100
AcDbAssocArrayItem
 90
        0
 90
        4
 90
        0
 90
        0
 90
        8
 11
240.0
 21
0.0
 31
0.0
330
CDD4
100
AcDbAssocArrayItem
 90
        0
 90
        5
 90
        0
 90
        0
 90
        8
 11
300.0
 21
0.0
 31
0.0
330
CDD5
100
AcDbAssocArrayItem
 90
        0
 90
        6
 90
        0
 90
        0
 90
        8
 11
360.0
 21
0.0
 31
0.0
330
CDD6
100
AcDbAssocArrayItem
 90
        0
 90
        7
 90
        0
 90
        0
 90
        8
 11
420.0
 21
0.0
 31
0.0
330
CDD7
100
AcDbAssocArrayItem
 90
        0
 90
        8
 90
        0
 90
        0
 90
        8
 11
480.0
 21
0.0
 31
0.0
330
CDD8
100
AcDbAssocArrayItem
 90
        0
 90
        9
 90
        0
 90
        0
 90
        8
 11
540.0
 21
0.0
 31
0.0
330
CDD9
100
AcDbAssocArrayItem
 90
        0
 90
       10
 90
        0
 90
        0
 90
        8
 11
600.0
 21
0.0
 31
0.0
330
CDDA
100
AcDbAssocArrayItem
 90
        0
 90
       11
 90
        0
 90
        0
 90
        8
 11
660.0
 21
0.0
 31
0.0
330
CDDB
100
AcDbAssocArrayItem
 90
        0
 90
       12
 90
        0
 90
        0
 90
        8
 11
720.0
 21
0.0
 31
0.0
330
CDDC
100
AcDbAssocArrayItem
 90
        0
 90
       13
 90
        0
 90
        0
 90
        8
 11
780.0
 21
0.0
 31
0.0
330
CDDD
100
AcDbAssocArrayItem
 90
        0
 90
       14
 90
        0
 90
        0
 90
        8
 11
840.0
 21
0.0
 31
0.0
330
CDDE
100
AcDbAssocArrayItem
 90
        0
 90
       15
 90
        0
 90
        0
 90
        8
 11
900.0
 21
0.0
 31
0.0
330
CDDF
100
AcDbAssocArrayItem
 90
        0
 90
       16
 90
        0
 90
        0
 90
        8
 11
960.0
 21
0.0
 31
0.0
330
CDE0
 40
1.0
 40
0.0
 40
0.0
 40
417.499999999999
 40
0.0
 40
1.0
 40
0.0
 40
666.2573057865825
 40
0.0
 40
0.0
 40
1.0
 40
0.0
 40
0.0
 40
0.0
 40
0.0
 40
1.0
  0
ACDBASSOCDEPENDENCY
  5
CDCB
330
CDC7
100
AcDbAssocDependency
 90
        2
 90
        1
290
     0
290
     1
290
     1
290
     1
 90
        0
330
CDC1
290
     0
330
0
330
0
360
0
 90
        1
  0
ACDBASSOCDEPENDENCY
  5
CDCC
330
CDC7
100
AcDbAssocDependency
 90
        2
 90
        1
290
     1
290
     0
290
     1
290
     1
 90
        0
330
CDBE
290
     0
330
0
330
0
360
0
 90
        2
  0
ACDBASSOCDEPENDENCY
  5
CDCD
330
CDC7
100
AcDbAssocDependency
 90
        2
 90
        0
290
     1
290
     1
290
     1
290
     1
 90
-2147483648
330
CDC4
290
     0
330
0
330
0
360
0
 90
        3
  0
ACDBASSOCVERTEXACTIONPARAM
  5
CD3F
330
CD3E
100
AcDbAssocActionParam
 90
        0
  1
BaseNormal
100
AcDbAssocSingleDependencyActionParam
 90
        0
330
0
100
AcDbAssocVertexActionParam
 90
        0
 10
0.0
 20
0.0
 30
1.0
  0
ACDBASSOCVERTEXACTIONPARAM
  5
CD40
330
CD3E
100
AcDbAssocActionParam
 90
        0
  1
Origin
100
AcDbAssocSingleDependencyActionParam
 90
        0
330
0
100
AcDbAssocVertexActionParam
 90
        0
 10
0.0
 20
0.0
 30
0.0
  0
ACDBASSOCVERTEXACTIONPARAM
  5
CD44
330
CD3E
100
AcDbAssocActionParam
 90
        0
  1
basePoint
100
AcDbAssocSingleDependencyActionParam
 90
        0
330
0
100
AcDbAssocVertexActionParam
 90
        0
 10
0.0
 20
0.0
 30
0.0
  0
ACDBASSOCVERTEXACTIONPARAM
  5
CD96
330
CD95
100
AcDbAssocActionParam
 90
        0
  1
BaseNormal
100
AcDbAssocSingleDependencyActionParam
 90
        0
330
0
100
AcDbAssocVertexActionParam
 90
        0
 10
0.0
 20
0.0
 30
1.0
  0
ACDBASSOCVERTEXACTIONPARAM
  5
CD97
330
CD95
100
AcDbAssocActionParam
 90
        0
  1
Origin
100
AcDbAssocSingleDependencyActionParam
 90
        0
330
0
100
AcDbAssocVertexActionParam
 90
        0
 10
0.0
 20
0.0
 30
0.0
  0
ACDBASSOCVERTEXACTIONPARAM
  5
CD9B
330
CD95
100
AcDbAssocActionParam
 90
        0
  1
basePoint
100
AcDbAssocSingleDependencyActionParam
 90
        0
330
0
100
AcDbAssocVertexActionParam
 90
        0
 10
0.0
 20
0.0
 30
0.0
  0
ACDBASSOCVERTEXACTIONPARAM
  5
CDC9
330
CDC8
100
AcDbAssocActionParam
 90
        0
  1
BaseNormal
100
AcDbAssocSingleDependencyActionParam
 90
        0
330
0
100
AcDbAssocVertexActionParam
 90
        0
 10
0.0
 20
0.0
 30
1.0
  0
ACDBASSOCVERTEXACTIONPARAM
  5
CDCA
330
CDC8
100
AcDbAssocActionParam
 90
        0
  1
Origin
100
AcDbAssocSingleDependencyActionParam
 90
        0
330
0
100
AcDbAssocVertexActionParam
 90
        0
 10
0.0
 20
0.0
 30
0.0
  0
ACDBASSOCVERTEXACTIONPARAM
  5
CDCE
330
CDC8
100
AcDbAssocActionParam
 90
        0
  1
basePoint
100
AcDbAssocSingleDependencyActionParam
 90
        0
330
0
100
AcDbAssocVertexActionParam
 90
        0
 10
0.0
 20
0.0
 30
0.0
  0
ENDSEC
  0
EOF
